<?xml version="1.0" standalone="no"?>
  <!DOCTYPE svg PUBLIC "-//W3C//DTD SVG 1.1//EN" "http://www.w3.org/Graphics/SVG/1.1/DTD/svg11.dtd" >
  <svg>
  <metadata>
  Created by font-carrier
  </metadata>
  <defs>
  <font id="iconfont" horiz-adv-x="1024" vert-adv-y="1024" >
    <font-face
      
      font-family="iconfont"
      
      font-weight="400"
      
      font-stretch="normal"
      
      units-per-em="1024"
      
      ascent="812"
      
      descent="-212"
      
    />
      <missing-glyph />

      
      <glyph glyph-name="x" unicode="&#x78;" horiz-adv-x="100"
        d="M20 20 L50 20 L50 -20 Z" />
      

      
      <glyph glyph-name="_kucun" unicode="&#xE001;" d="M394.24 162.784H686.592C697.856 163.296 708.096 168.416 715.776 177.12 723.456 185.824 727.04 196.576 726.528 207.84 724.992 230.368 706.56 247.776 684.032 247.776H391.68C380.416 247.264 370.176 242.144 362.496 233.44 354.816 224.736 351.232 213.984 351.744 202.72 353.28 180.192 371.712 162.784 394.24 162.784ZM206.848-121.888H871.424C921.088-121.888 961.024-81.44 961.024-32.288V303.584C961.024 325.088 943.616 341.984 922.624 341.984 901.12 341.984 884.224 324.576 884.224 303.584V-46.112H193.024V304.608C192.512 324.064 176.128 339.936 156.672 340.96H155.136C134.656 340.96 118.272 325.088 117.248 304.608V-32.288C117.248-81.952 157.696-121.888 206.848-121.888ZM961.024 495.584C961.024 505.824 956.928 515.552 950.272 523.232L798.72 690.144C780.288 710.112 754.176 721.888 727.04 721.888H345.6C317.44 721.888 291.328 709.6 272.896 688.096L128 522.72 124.416 518.624C119.808 511.968 117.76 503.776 117.76 495.584V489.44C117.76 466.4 136.704 447.456 159.744 447.456H920.064C943.616 447.968 962.048 466.912 961.536 490.464L961.024 495.584ZM832 519.136H240.128L245.76 527.328 326.656 645.6V646.112L327.168 646.624C329.216 649.184 332.8 650.72 335.872 650.72H742.912C746.496 650.72 749.568 649.184 751.616 646.624L836.096 528.352 841.728 520.16H832Z"  horiz-adv-x="1024" vert-adv-y="1024"  />

      
      <glyph glyph-name="yibiaojiyouxian" unicode="&#xE002;" d="M844.8 632.8C758.4 716 640 770.4 512 770.4S265.6 716 179.2 632.8C96 546.4 41.6 431.2 41.6 300 41.6 172 92.8 53.6 179.2-32.8 265.6-116 384-170.4 512-170.4S758.4-119.2 844.8-32.8C928 53.6 982.4 172 982.4 300 982.4 431.2 928 546.4 844.8 632.8ZM691.2 344.8L470.4 44C470.4 40.8 464 37.6 457.6 37.6S441.6 44 441.6 53.6V56.8L480 226.4H345.6C332.8 226.4 323.2 239.2 326.4 252L444.8 556C448 562.4 457.6 568.8 464 568.8H614.4C627.2 568.8 636.8 552.8 633.6 543.2L556.8 380H675.2C691.2 376.8 697.6 360.8 691.2 344.8Z"  horiz-adv-x="1024" vert-adv-y="1024"  />

      
      <glyph glyph-name="bofang" unicode="&#xE003;" d="M512 773.088C251.392 773.088 38.912 560.608 38.912 300S250.88-173.088 512-173.088 985.088 38.88 985.088 300 772.608 773.088 512 773.088ZM923.136 300C923.136 73.184 738.816-111.136 512-111.136S100.864 73.184 100.864 300 285.184 711.136 512 711.136 923.136 526.816 923.136 300ZM646.144 365.536L492.544 467.424C440.32 501.728 396.288 478.688 396.288 415.2V184.288C396.288 120.8 438.784 97.76 492.544 132.576L646.144 234.464C697.856 272.864 697.856 330.72 646.144 365.536Z"  horiz-adv-x="1024" vert-adv-y="1024"  />

      
      <glyph glyph-name="dingdan" unicode="&#xE004;" d="M271.872 335.84C248.832 335.84 230.912 320.48 230.912 301.024 230.912 282.592 250.368 266.208 271.872 266.208H733.184C756.224 266.208 774.144 281.568 774.144 301.024 774.144 311.776 770.56 318.944 762.88 325.088L762.368 325.6 761.856 326.112C755.2 332.768 745.472 335.84 732.672 335.84H271.872ZM913.92 514.528L696.32 696.288C686.592 704.48 670.72 710.112 656.896 710.112H238.08C169.984 710.112 115.2 661.472 115.2 602.08V-0.544C115.2-60.448 170.496-108.576 238.08-108.576H808.96C877.056-108.576 931.84-59.936 931.84-0.544V478.688C931.84 491.488 925.184 504.288 913.92 514.528ZM663.552 496.608V640.48L671.232 633.824 687.104 620.512 809.984 517.088 829.952 500.192 840.192 491.488H663.552V496.608ZM187.904 617.952C194.56 637.92 214.528 651.744 238.08 651.744H592.896V495.584C592.896 460.768 624.64 433.632 665.088 433.632H859.136V3.04C859.136-24.096 836.096-45.088 806.912-45.088H235.52C206.336-45.088 183.296-24.096 183.296 3.04M271.872 181.728C248.832 181.728 230.912 166.368 230.912 146.912S248.832 112.096 271.872 112.096H733.184C756.224 112.096 774.144 127.456 774.144 146.912 774.144 157.664 770.56 164.832 762.88 170.976L762.368 171.488 761.856 172C755.2 178.656 745.472 181.728 732.672 181.728H271.872Z"  horiz-adv-x="1024" vert-adv-y="1024"  />

      
      <glyph glyph-name="fixed" unicode="&#xE005;" d="M950.4 469.6C963.2 482.4 963.2 508 950.4 520.8L716.8 754.4C704 767.2 678.4 767.2 665.6 754.4 627.2 716 604.8 652 608 594.4L409.6 434.4C300.8 469.6 182.4 440.8 99.2 367.2 86.4 360.8 83.2 351.2 83.2 344.8 83.2 332 89.6 322.4 96 316L281.6 130.4 76.8-74.4C64-87.2 64-103.2 64-112.8 70.4-125.6 76.8-135.2 92.8-141.6 105.6-148 121.6-141.6 128-128.8L332.8 76 406.4 8.8C406.4 21.6 412.8 31.2 419.2 47.2 412.8 69.6 412.8 85.6 412.8 108L361.6 159.2 176 341.6C249.6 380 336 392.8 409.6 364 422.4 357.6 432 364 444.8 370.4L672 552.8C684.8 565.6 688 575.2 684.8 588 678.4 616.8 684.8 648.8 697.6 677.6L864 498.4C835.2 482.4 806.4 482.4 774.4 485.6 761.6 492 745.6 485.6 739.2 472.8L627.2 325.6C656 325.6 684.8 325.6 713.6 319.2L787.2 408.8C848 408.8 908.8 431.2 950.4 469.6ZM643.2 309.6C524.8 309.6 432 213.6 432 98.4S528-112.8 643.2-112.8C761.6-112.8 854.4-16.8 854.4 98.4S758.4 309.6 643.2 309.6ZM489.6 101.6C489.6 124 496 152.8 505.6 168.8L739.2-23.2C710.4-45.6 678.4-58.4 643.2-58.4 560-52 489.6 15.2 489.6 101.6ZM780.8 28L547.2 220C576 242.4 608 255.2 643.2 255.2 729.6 255.2 796.8 188 796.8 101.6 796.8 72.8 790.4 50.4 780.8 28Z"  horiz-adv-x="1024" vert-adv-y="1024"  />

      
      <glyph glyph-name="gezhidingdan" unicode="&#xE006;" d="M314.88 504.288C295.424 504.288 280.064 488.928 280.064 469.472 280.064 451.04 296.448 434.656 314.88 434.656H707.584C727.04 434.656 742.4 450.016 742.4 469.472 742.4 480.224 739.328 487.392 732.672 493.536L732.16 494.048V494.56C726.528 501.216 718.336 504.288 707.072 504.288H314.88ZM308.224 330.72C292.352 330.72 279.552 315.36 279.552 295.904 279.552 277.472 292.864 261.088 308.224 261.088H628.736C644.608 261.088 657.408 276.448 657.408 295.904 657.408 306.656 654.848 313.824 649.728 319.968L649.216 320.48 648.704 320.992C644.096 327.648 637.44 330.72 628.224 330.72H308.224ZM300.544 157.152C288.768 157.152 280.064 141.792 280.064 122.336 280.064 103.904 289.792 87.52 300.544 87.52H533.504C545.28 87.52 553.984 102.88 553.984 122.336 553.984 133.088 551.936 140.256 548.352 146.4L547.84 146.912 547.328 147.424C543.744 154.08 539.136 157.152 532.48 157.152H300.544ZM850.432 759.776C909.312 759.776 956.928 712.16 956.928 653.28V438.752C956.928 424.416 948.736 411.104 935.424 405.472 922.112 399.84 906.752 402.912 897.024 413.152 890.368 419.808 886.784 429.024 886.784 438.752V653.792C887.296 672.224 872.448 687.584 854.016 688.608H216.576C198.144 688.096 183.296 672.736 183.808 653.792V-63.52C183.808-81.952 198.656-96.8 216.576-96.8H461.824C475.136-95.264 487.424-101.408 494.592-112.672 501.76-123.936 502.272-137.76 496.128-149.536S477.696-168.48 464.896-167.968H219.136C190.976-167.968 163.84-156.192 144.384-136.224 124.416-115.744 113.664-88.096 113.664-59.936V652.256C113.664 712.16 160.256 759.264 219.136 759.264H850.432ZM779.776 192.992C877.568 192.992 956.928 112.096 956.928 12.768 956.928-86.56 877.568-167.456 779.776-167.456S602.624-86.56 602.624 12.768 681.984 192.992 779.776 192.992ZM902.144-13.856H657.408C669.696-71.2 719.872-114.208 779.776-114.208S890.368-71.2 902.144-13.856ZM779.776 139.744C719.36 139.744 668.672 96.224 656.896 37.856H902.144C890.88 96.224 840.192 139.744 779.776 139.744Z"  horiz-adv-x="1024" vert-adv-y="1024"  />

      
      <glyph glyph-name="lock2" unicode="&#xE007;" d="M863 189C854 198 845 201 836 201 815 201 797 183 797 162V-60H173V288H557C578 288 596 306 596 327S578 366 557 366H278V504C278 597 368 672 482 672 593 672 686 597 686 507V483C686 462 704 444 725 444S764 462 764 483V507C764 573 734 636 680 681 626 726 557 750 482 750S338 726 287 681C263 660 242 633 227 603S203 540 203 504V363H134C113 363 95 345 95 324V-102C95-123 113-141 134-141H833C854-141 872-123 872-102V159C872 171 869 180 863 189ZM917 462C902 477 878 477 863 462L494 93C479 78 479 54 494 39 500 33 512 27 521 27 530 27 542 30 548 39L920 411C926 417 932 429 932 438 929 447 926 456 917 462Z"  horiz-adv-x="1024" vert-adv-y="1024"  />

      
      <glyph glyph-name="duankaiguanlian" unicode="&#xE008;" d="M433.0667 229.6A39.2533 39.2533 0 1 0 433.0667 151.0933H236.8A157.44 157.44 0 0 0 236.8 465.9733H433.0667A40.1067 40.1067 0 0 0 471.8933 425.8667 39.2533 39.2533 0 0 0 433.0667 387.04H236.8A78.9333 78.9333 0 1 1 236.8 229.6ZM590.9333 385.3333A39.68 39.68 0 1 0 590.9333 464.2667H787.2A157.44 157.44 0 1 0 787.2 149.3867H590.9333A39.2533 39.2533 0 1 0 590.9333 227.8933H788.48A78.9333 78.9333 0 1 1 789.76 385.3333H590.9333ZM472.7467 669.92A39.68 39.68 0 0 0 551.68 669.92V584.5867A39.68 39.68 0 0 0 472.7467 584.5867ZM472.7467 27.7867A39.2533 39.2533 0 1 0 551.2533 27.7867V-70.7733A39.2533 39.2533 0 0 0 472.7467-70.7733ZM679.2533 614.4533A39.2533 39.2533 0 0 0 734.72 614.4533 39.68 39.68 0 0 0 734.72 558.56L679.2533 503.0933A39.68 39.68 0 0 0 623.36 503.0933 39.2533 39.2533 0 0 0 623.36 558.56ZM345.1733 113.5467A39.68 39.68 0 0 0 401.0667 113.5467 39.2533 39.2533 0 0 0 401.0667 58.08L345.1733 1.3333A39.2533 39.2533 0 0 0 289.7067 1.3333 39.68 39.68 0 0 0 289.7067 57.2267ZM290.9867 556A39.2533 39.2533 0 0 0 346.4533 611.4667L402.3467 556A39.68 39.68 0 0 0 346.4533 501.3867ZM622.9333 57.6533A39.2533 39.2533 0 0 0 678.4 113.12L734.2933 57.6533A39.68 39.68 0 1 0 678.4 1.3333Z"  horiz-adv-x="1024" vert-adv-y="1024"  />

      
      <glyph glyph-name="weishangchuanshipin" unicode="&#xE009;" d="M745.984-152.096H225.28C181.76-152.096 145.92-116.256 145.92-72.736V663.52C145.92 707.04 181.76 742.88 225.28 742.88H584.704C604.672 742.88 623.104 735.2 637.44 721.376L854.016 514.016C868.864 499.68 877.568 479.712 877.568 458.72V-20.512C877.568-36.896 873.984-78.88 838.656-113.696 814.08-138.272 781.312-152.096 745.984-152.096ZM225.28 676.32C218.112 676.32 212.48 670.688 212.48 663.52V-72.736C212.48-79.904 218.112-85.536 225.28-85.536H745.472C762.88-85.536 779.264-78.88 791.552-66.592 809.472-48.672 810.496-26.656 810.496-20.512V459.232C810.496 461.792 809.472 464.352 807.424 466.4L591.872 673.76C589.824 675.808 587.264 676.32 584.704 676.32H225.28ZM824.32 398.304H600.064C556.544 398.304 520.704 433.632 520.704 477.664V681.952C520.704 700.384 535.552 715.232 553.984 715.232S587.264 700.384 587.264 681.952V477.664C587.264 470.496 592.896 464.864 600.064 464.864H824.32C842.752 464.864 857.6 450.016 857.6 431.584S842.752 398.304 824.32 398.304ZM528.384 59.872H318.464C303.104 59.872 290.816 72.16 290.816 87.52V297.44C290.816 312.8 303.104 325.088 318.464 325.088H528.384C543.744 325.088 556.032 312.8 556.032 297.44V87.52C556.032 72.672 543.744 59.872 528.384 59.872ZM605.696 169.952L721.92 62.944C726.528 58.848 733.696 61.92 733.696 68.064V317.408C733.696 323.552 726.528 326.624 721.92 322.528L605.696 215.52C591.872 203.232 591.872 182.24 605.696 169.952Z"  horiz-adv-x="1024" vert-adv-y="1024"  />

      
      <glyph glyph-name="End" unicode="&#xE00A;" d="M705.6 687.1C700.3 689.8 694 685.9 694 679.9V615.7C694 610.2 696.9 605.1 701.5 602.1 723.9 588 744.7 571.4 763.7 552.3 796.4 519.5 822.1 481.4 840 439 858.5 395.1 867.9 348.5 867.9 300.3 867.9 252.2 858.5 205.5 840 161.6 822.1 119.2 796.4 81.1 763.7 48.3 731 15.5 692.9-10.2 650.5-28.1 606.7-46.7 560-56.1 512-56.1S417.3-46.7 373.5-28.1C331.1-10.2 293 15.5 260.3 48.3 227.6 81.1 201.9 119.2 184 161.6 165.5 205.5 156.1 252.1 156.1 300.3 156.1 348.4 165.5 395.1 184 439 201.9 481.4 227.6 519.5 260.3 552.3 279.3 571.3 300.1 587.9 322.5 602.1 327.2 605 330 610.2 330 615.7V680C330 686 323.7 689.8 318.4 687.2 178.5 616.8 82 472.7 80 305.7 77.2 66.9 272.5-131.5 511.2-132 750.2-132.5 944 61.3 944 300.4 944 469.6 847 616.1 705.6 687.1ZM480 252H544C548.4 252 552 255.6 552 260V724C552 728.4 548.4 732 544 732H480C475.6 732 472 728.4 472 724V260C472 255.6 475.6 252 480 252Z"  horiz-adv-x="1024" vert-adv-y="1024"  />

      
      <glyph glyph-name="kaishipandian" unicode="&#xE00B;" d="M180.736 520.672V530.912H874.496V520.672L877.056 337.888C877.056 320.48 891.392 306.144 909.312 306.144 926.72 306.144 940.544 320.992 940.544 338.912L936.96 568.8C936.96 572.384 936.448 575.456 935.424 578.016L934.4 581.6C933.376 585.184 931.328 587.744 930.304 590.304L824.832 736.224C817.664 746.464 806.4 752.608 794.112 752.608H261.12C248.832 752.608 237.568 746.464 230.912 737.248L125.44 591.328 124.928 590.816C121.856 586.208 119.808 580.064 118.784 574.432V573.408L117.76 570.848C117.248 569.312 116.736 567.264 116.736 564.704V-85.024C116.736-114.72 136.192-140.832 164.864-149.024H167.424L531.456-152.608C548.864-152.608 563.2-138.272 563.2-120.864 563.2-103.456 548.864-89.12 531.456-89.12L190.976-88.608H180.736V520.672ZM218.624 611.808L270.848 684 273.92 688.096H781.312L784.384 684 836.608 611.808 848.384 595.424H207.36L218.624 611.808ZM531.456-155.168L164.864-151.584H164.352C135.168-142.88 114.688-115.744 114.688-85.024V564.704C114.688 567.264 115.2 569.824 115.712 571.36L116.224 574.432C117.248 581.088 119.296 587.232 122.88 592.352L123.392 592.864 228.864 738.784C236.032 749.024 248.32 755.168 261.12 755.168H795.136C808.448 755.168 820.736 748.512 827.904 737.76L933.376 591.84C934.912 589.28 936.96 586.208 937.984 582.624L939.008 579.04C940.032 575.968 940.544 572.896 940.544 568.8L944.128 338.912C944.128 319.456 928.768 303.584 910.336 303.584 890.88 303.584 875.52 318.944 875.52 337.888L872.448 528.352H183.296V-86.048L531.456-86.56A34.304 34.304 0 0 0 531.456-155.168ZM165.376-146.464H167.424L531.456-150.048C547.328-150.048 560.64-136.736 560.64-120.864 560.64-104.48 547.328-91.68 531.456-91.68L178.688-91.168V533.472H877.056L880.128 337.888C880.128 322.016 893.44 308.704 909.824 308.704 925.696 308.704 938.496 322.016 938.496 338.912L934.912 568.8C934.912 571.872 934.4 574.944 933.888 577.504L932.864 581.088C931.84 584.16 930.304 586.72 928.768 589.28L823.296 735.2C816.64 744.416 805.888 750.048 794.624 750.048H261.12C249.856 750.048 239.104 744.416 232.96 735.712L126.976 589.792C123.904 585.696 121.856 580.064 121.344 574.432L120.32 570.336C119.808 568.8 119.296 566.752 119.296 564.704V-85.024C119.808-113.184 138.752-138.272 165.376-146.464ZM853.504 593.376H202.24L217.088 613.856 219.136 612.32 217.088 613.856 272.896 691.168H782.848L853.504 593.376ZM211.968 598.496H843.264L779.776 686.048H275.456L211.968 598.496ZM668.16 397.792H394.752C378.368 397.792 365.568 384.48 365.568 368.608S378.88 339.424 394.752 339.424H668.16C684.544 339.424 697.344 352.736 697.344 368.608S684.544 397.792 668.16 397.792ZM668.16 336.864H394.752C377.344 336.864 363.008 351.2 363.008 368.608S377.344 400.352 394.752 400.352H668.16C685.568 400.352 699.904 386.016 699.904 368.608S686.08 336.864 668.16 336.864ZM394.752 395.232C379.904 395.232 368.128 383.456 368.128 368.608S379.904 341.984 394.752 341.984H668.16C683.008 341.984 694.784 353.76 694.784 368.608S683.008 395.232 668.16 395.232H394.752ZM757.248 267.232C671.232 267.232 601.088 197.088 601.088 111.072S671.232-45.088 757.248-45.088C783.872-45.088 809.984-38.432 833.024-25.632L841.216-21.024 846.336-28.704C846.848-29.728 847.36-30.24 848.384-31.264L937.984-120.864C943.104-126.496 950.784-129.568 958.976-129.568 967.168-129.568 974.336-126.496 980.48-120.864 986.112-115.232 989.184-108.064 989.184-99.872 989.184-91.68 986.112-84.512 980.48-78.88L889.344 12.256 883.2 18.4 887.808 25.568C904.704 51.168 913.408 80.864 913.408 111.584 913.408 197.6 843.264 267.232 757.248 267.232ZM756.736 13.28C702.976 13.28 659.456 56.8 659.456 110.56S702.976 207.84 756.736 207.84 854.016 164.32 854.016 110.56C854.528 56.8 810.496 13.28 756.736 13.28ZM958.976-132.128C950.272-132.128 942.08-128.544 935.936-122.4L846.336-32.8C845.824-32.288 844.8-31.264 844.288-30.24L840.192-24.096 834.048-27.68C811.008-40.992 784.384-47.648 757.248-47.648 669.696-47.648 598.528 23.52 598.528 111.072S669.696 269.792 757.248 269.792 915.968 198.624 915.968 111.072C915.968 79.84 906.752 50.144 889.856 24.032L886.272 18.912 982.016-76.832C988.16-82.976 991.232-90.656 991.232-99.36 991.232-108.064 988.16-116.256 982.016-121.888 975.872-128.544 967.68-132.128 958.976-132.128ZM841.728-16.928L848.384-26.656C848.896-27.68 849.408-28.192 849.92-28.704L939.52-118.304C944.64-123.936 951.296-126.496 958.976-126.496S973.312-123.936 978.432-118.304C983.552-113.184 986.112-106.528 986.112-99.36 986.112-92.192 983.552-85.536 978.432-80.416L879.616 18.4 885.248 27.104C901.632 52.192 910.848 81.376 910.848 111.584 910.848 196.064 841.728 265.184 757.248 265.184S603.648 196.064 603.648 111.584 672.768-42.016 757.248-42.016C783.36-42.016 809.472-35.36 831.488-22.56L841.728-16.928ZM756.736 10.72C701.44 10.72 656.896 55.776 656.896 110.56 656.896 165.856 701.952 210.4 756.736 210.4 812.032 210.4 856.576 165.344 856.576 110.56 857.088 55.776 812.032 10.72 756.736 10.72ZM756.736 205.792C704.512 205.792 662.016 163.296 662.016 111.072S704.512 16.352 756.736 16.352 851.456 58.848 851.456 111.072 808.96 205.792 756.736 205.792Z"  horiz-adv-x="1024" vert-adv-y="1024"  />

      
      <glyph glyph-name="jieshupandian" unicode="&#xE00C;" d="M843.776 716.768H180.224C133.12 716.768 95.232 678.88 95.232 631.776V-32.288C95.232-79.392 133.12-117.28 180.224-117.28H844.288C891.392-117.28 929.28-79.392 929.28-32.288V631.776C928.768 678.88 890.88 716.768 843.776 716.768ZM863.232 4.064C863.232-7.2 861.184-23.072 845.824-33.312 835.072-40.48 823.808-47.648 811.52-47.648H212.992C201.728-47.648 185.856-45.6 175.616-30.24 168.448-19.488 161.28-8.224 161.28 4.064V599.008C161.28 610.272 163.328 626.144 178.688 636.384 180.736 637.92 183.296 639.456 185.344 641.504 192 647.136 200.192 653.792 212.992 653.792H811.52C822.784 653.792 838.656 651.744 848.896 636.384 856.064 625.632 863.232 614.368 863.232 602.08V4.064ZM843.776-119.328H180.224C132.096-119.328 92.672-79.904 92.672-31.776V631.776C92.672 679.904 132.096 719.328 180.224 719.328H844.288C892.416 719.328 931.84 679.904 931.84 631.776V-32.288C931.328-80.416 892.416-119.328 843.776-119.328ZM180.224 714.208C134.656 714.208 97.792 677.344 97.792 631.776V-32.288C97.792-77.856 134.656-114.72 180.224-114.72H844.288C889.856-114.72 926.72-77.856 926.72-32.288V631.776C926.72 677.344 889.856 714.208 844.288 714.208H180.224ZM811.008-50.208H212.992C201.216-50.208 184.832-48.16 173.568-31.776 166.4-20.512 158.72-9.248 158.72 4.064V599.008C158.72 610.784 160.768 627.168 177.152 638.432 179.2 639.968 181.248 641.504 183.808 643.552 190.464 649.184 199.68 656.864 213.504 656.864H812.032C823.808 656.864 840.192 654.816 851.456 638.432 858.624 627.168 866.304 615.904 866.304 602.592V4.064C866.304-7.712 864.256-24.096 847.872-35.36 836.096-43.04 824.832-50.208 811.008-50.208ZM212.992 651.744C201.216 651.744 193.536 645.6 186.88 639.968 184.32 637.92 182.272 636.384 180.224 634.336 165.888 624.608 163.84 609.76 163.84 599.008V4.064C163.84-7.712 171.008-18.464 178.176-29.216 187.904-43.552 202.752-45.6 213.504-45.6H812.032C823.808-45.6 834.56-38.432 845.312-31.264 859.648-21.536 861.696-6.688 861.696 4.064V602.592C861.696 614.368 854.528 625.12 847.36 635.872 837.632 650.208 822.784 652.256 812.032 652.256H212.992ZM624.128 113.632H399.872C358.912 113.632 325.632 146.912 325.632 187.872V412.128C325.632 453.088 358.912 486.368 399.872 486.368H624.128C665.088 486.368 698.368 453.088 698.368 412.128V187.872C698.368 146.912 665.088 113.632 624.128 113.632ZM624.128 111.072H399.872C357.376 111.072 323.072 145.376 323.072 187.872V412.128C323.072 454.624 357.376 488.928 399.872 488.928H624.128C666.624 488.928 700.928 454.624 700.928 412.128V187.872C700.928 145.376 666.624 111.072 624.128 111.072ZM399.872 483.808C360.448 483.808 328.192 451.552 328.192 412.128V187.872C328.192 148.448 360.448 116.192 399.872 116.192H624.128C663.552 116.192 695.808 148.448 695.808 187.872V412.128C695.808 451.552 663.552 483.808 624.128 483.808H399.872Z"  horiz-adv-x="1024" vert-adv-y="1024"  />

      
      <glyph glyph-name="fixed1" unicode="&#xE00D;" d="M76.8-90.4C64-103.2 64-116 67.2-132S86.4-154.4 99.2-154.4C108.8-154.4 118.4-154.4 124.8-144.8L332.8 63.2 521.6-125.6C531.2-128.8 540.8-135.2 547.2-135.2S569.6-132 572.8-122.4C652.8-32.8 675.2 98.4 636.8 210.4L784 399.2C841.6 396 902.4 418.4 947.2 456.8 950.4 466.4 956.8 476 956.8 482.4S953.6 501.6 947.2 504.8L713.6 738.4C700.8 751.2 678.4 751.2 665.6 738.4 620.8 693.6 598.4 636 608 575.2L412.8 428C300.8 460 179.2 431.2 92.8 360.8 83.2 351.2 80 341.6 80 335.2 80 325.6 80 316 89.6 309.6L278.4 120.8 76.8-90.4Z"  horiz-adv-x="1024" vert-adv-y="1024"  />

      
      <glyph glyph-name="cancel" unicode="&#xE00E;" d="M110.08-20V411.36L881.92 411.36V321.12H960V449.12A37.12 37.12 0 0 1 956.16 465.76L851.2 689.76A128 128 0 0 1 734.08 764H256A128 128 0 0 1 140.8 689.12L37.12 467.04A34.56 34.56 0 0 1 33.28 451.04V-20A102.4 102.4 0 0 1 135.68-122.4H496V-45.6H135.68A25.6 25.6 0 0 0 110.08-20ZM734.08 684A53.12 53.12 0 0 0 782.08 653.92L860.8 492H536.32V684ZM209.92 653.92A54.4 54.4 0 0 0 256 684H458.88L458.88 485.6H131.2ZM741.76 333.92A248.96 248.96 0 1 1 990.72 84.96 248.96 248.96 0 0 1 741.76 333.92ZM741.76-100A184.96 184.96 0 1 0 926.72 84.96 184.96 184.96 0 0 0 741.76-100ZM843.52 187.36A32 32 0 0 1 798.72 187.36L741.76 130.4 684.16 187.36A32 32 0 0 1 639.36 187.36 32 32 0 0 1 639.36 141.92L696.32 84.96 639.36 28A32 32 0 0 1 640-20 32.64 32.64 0 0 1 684.8-20L742.4 36.96 799.36-20A32.64 32.64 0 0 1 844.16-20 32 32 0 0 1 844.16 25.44L787.2 82.4 844.16 139.36A32 32 0 0 1 843.52 187.36Z"  horiz-adv-x="1024" vert-adv-y="1024"  />

      
      <glyph glyph-name="chaxunwuliu" unicode="&#xE00F;" d="M771.584 175.584C754.176 200.16 753.152 232.928 769.536 258.528 772.096 262.624 772.608 267.744 771.584 272.352 770.56 276.96 767.488 281.056 763.392 283.616 760.32 285.152 757.248 286.176 754.176 286.176 748.032 286.176 742.4 283.104 738.816 277.984 714.752 239.584 715.776 191.456 741.888 154.592 745.472 149.472 751.104 146.4 757.248 146.4 760.832 146.4 764.416 147.424 767.488 149.472 775.168 155.616 777.216 167.392 771.584 175.584ZM756.736 143.84C750.08 143.84 743.424 147.424 739.328 153.056 712.704 190.944 711.68 240.608 736.256 279.52 740.352 285.664 747.008 289.248 753.664 289.248 757.248 289.248 760.832 288.224 764.416 286.176 769.024 283.104 772.608 279.008 774.144 273.376 775.68 268.256 774.656 262.112 772.096 257.504 756.224 232.416 757.248 201.184 774.144 177.12 780.8 167.392 778.752 154.08 769.024 147.424 764.928 145.376 760.832 143.84 756.736 143.84ZM753.664 284.128C748.544 284.128 743.424 281.568 740.352 276.96 716.8 239.584 718.336 192.48 743.424 156.128 746.496 152.032 751.104 149.472 756.736 149.472 759.808 149.472 762.88 150.496 765.44 152.032 772.608 157.152 774.144 166.88 769.024 174.56 751.104 200.16 750.08 233.952 766.976 260.576 769.024 264.16 769.536 268.256 768.512 272.352 767.488 276.448 764.928 280.032 761.344 282.08 759.296 283.104 756.224 284.128 753.664 284.128ZM756.736 141.28C749.056 141.28 741.888 144.864 737.28 151.52 710.144 189.92 708.608 240.608 734.208 280.544 738.816 287.2 745.984 291.296 754.176 291.296 758.272 291.296 762.368 290.272 765.952 288.224 771.584 285.152 775.168 280.032 776.704 273.888 778.24 267.744 777.216 261.6 774.144 256.48 758.784 232.416 759.808 201.696 775.68 178.656 783.36 167.904 780.8 153.056 770.048 145.888 765.952 142.816 761.344 141.28 756.736 141.28ZM753.664 281.568C749.056 281.568 744.96 279.52 742.4 275.424 719.36 239.072 720.896 192.992 745.472 157.664 749.568 152.032 758.272 149.984 763.904 154.08 770.048 158.176 771.072 166.88 766.976 173.024 748.032 199.648 747.52 234.464 764.928 261.6 766.464 264.672 766.976 268.256 766.464 271.328 765.44 274.912 763.392 277.472 760.32 279.52 758.272 280.544 756.224 281.568 753.664 281.568ZM756.736 138.72C748.032 138.72 740.352 142.816 735.232 149.984 707.584 189.408 706.048 241.12 731.648 282.08 736.768 289.76 744.96 293.856 753.664 293.856 758.272 293.856 762.88 292.832 766.976 290.272 773.12 286.688 777.216 281.056 778.752 274.4 780.288 267.744 779.264 260.576 776.192 254.944 761.344 231.392 761.856 202.208 777.728 180.192 785.92 167.904 783.36 151.52 771.584 143.328 766.976 140.768 761.856 138.72 756.736 138.72ZM753.664 289.248C746.496 289.248 739.84 285.664 736.256 279.52 711.68 240.608 713.216 190.944 739.328 153.056 743.424 147.424 749.568 143.84 756.736 143.84 760.832 143.84 764.928 144.864 768.512 147.424 778.24 154.08 780.288 167.392 773.632 177.12 756.736 201.184 756.224 232.416 771.584 257.504 774.144 262.112 775.168 267.744 773.632 272.864 772.096 278.496 769.024 282.592 763.904 285.664 760.832 288.224 757.248 289.248 753.664 289.248ZM756.736 149.472C755.712 149.472 754.688 149.472 753.664 149.984 749.568 151.008 745.984 153.056 743.424 156.64 717.824 192.48 716.8 240.096 740.352 277.472 744.96 284.64 754.688 286.688 761.856 282.592 765.44 280.544 768 276.96 769.024 272.864 770.048 268.768 769.536 264.672 767.488 261.088 750.592 234.464 751.616 200.672 769.536 175.072 774.656 167.904 773.12 157.664 765.952 152.544 762.88 150.496 759.808 149.472 756.736 149.472ZM753.664 279.008C750.08 279.008 746.496 276.96 744.448 273.888 721.92 238.56 723.456 193.504 747.52 159.2 749.056 157.152 751.616 155.104 754.688 154.592 757.76 154.08 760.32 154.592 762.88 156.128 767.488 159.712 769.024 166.368 765.44 171.488 745.984 198.624 745.472 234.464 763.392 263.136 764.928 265.184 764.928 268.256 764.416 271.328 763.904 273.888 761.856 276.448 759.296 277.984 757.248 278.496 755.712 279.008 753.664 279.008ZM799.744 397.28C762.88 397.28 727.04 386.016 696.832 364.512 657.92 336.864 631.808 296.416 623.616 249.312 615.424 202.208 626.176 155.104 653.312 116.192 686.592 68.576 741.376 40.416 798.72 40.416 826.368 40.416 853.504 46.56 878.592 59.36L886.784 63.456 891.904 56.288 958.976-40.992C961.536-45.088 966.144-47.648 970.752-48.672 971.776-48.672 972.8-49.184 973.824-49.184 977.408-49.184 980.992-48.16 984.576-45.6 992.768-39.968 994.816-28.192 989.184-20L922.112 77.28 916.992 84.448 923.136 90.592C954.88 120.8 973.824 161.76 977.408 205.28 980.992 252.896 966.144 298.976 934.912 334.816 900.608 374.752 851.456 397.28 799.744 397.28ZM938.496 195.04C931.84 157.664 911.36 125.408 880.64 103.392 856.576 86.496 828.416 77.28 799.232 77.28 791.04 77.28 782.848 77.792 774.656 79.328 697.856 92.64 646.144 165.856 659.456 242.656 666.112 280.032 686.592 312.288 717.312 334.304 741.376 351.2 769.536 359.904 798.72 359.904 844.8 359.904 888.32 337.376 914.432 300 936.448 269.792 945.152 231.904 938.496 195.04ZM973.824-51.232C972.8-51.232 971.264-51.232 970.24-50.72 964.608-49.696 960-46.624 956.928-42.016L885.76 60.384 879.616 57.312C854.016 44.512 826.88 38.368 798.72 38.368 740.352 38.368 685.056 67.04 651.264 115.168 623.616 154.592 612.864 202.72 621.056 250.336 629.248 297.952 655.872 339.424 695.296 367.072 726.016 389.088 762.368 400.352 799.744 400.352 852.48 400.352 902.144 377.312 936.96 336.864 968.192 300 983.552 253.408 979.968 205.28 976.384 160.736 956.928 119.264 925.184 89.056L920.576 84.448 991.744-17.952C998.4-27.168 995.84-40.48 986.624-47.136 982.016-50.208 977.92-51.232 973.824-51.232ZM887.296 66.528L960.512-39.456C963.072-43.04 966.656-45.088 970.752-45.6 974.848-46.112 978.944-45.6 982.528-43.04 989.696-37.92 991.232-28.192 986.112-21.024L913.408 84.96 921.088 92.64C952.32 122.336 971.264 162.784 974.336 205.792 977.92 252.384 963.072 297.952 932.352 333.792 898.56 373.216 850.432 395.232 799.232 395.232 762.88 395.232 728.064 383.968 697.856 362.976 659.456 335.84 633.856 295.392 625.664 249.312 617.472 203.232 628.224 156.64 654.848 118.24 687.616 71.648 741.376 43.488 798.208 43.488 825.344 43.488 851.968 49.632 876.544 61.92L887.296 66.528ZM799.744 74.72C791.552 74.72 783.36 75.232 775.168 76.768 737.28 83.424 704 104.416 681.984 135.648 659.968 166.88 651.264 205.28 657.92 243.168 664.576 281.056 685.568 314.336 716.8 336.352 741.376 353.76 770.048 362.464 799.744 362.464 846.848 362.464 890.88 339.424 917.504 301.536 939.52 270.304 948.224 231.904 941.568 194.016 934.912 156.128 913.92 122.848 882.688 100.832 857.6 83.936 829.44 74.72 799.744 74.72ZM799.232 357.856C770.56 357.856 742.912 349.152 719.36 332.768 689.152 311.264 668.672 279.52 662.528 243.168 656.384 206.816 664.576 169.952 686.08 139.232 707.584 109.024 739.328 88.544 775.68 82.4 812.032 76.256 849.408 84.448 879.616 105.952 909.824 127.456 930.304 159.2 936.448 196.064 942.592 232.416 934.4 269.28 913.408 300 886.784 335.84 844.288 357.856 799.232 357.856ZM973.824-53.792C972.288-53.792 971.264-53.792 969.728-53.28 963.584-52.256 957.952-48.672 954.368-43.552L884.736 57.312 880.64 55.264C855.04 42.464 827.392 35.808 798.72 35.808 739.328 35.808 683.52 64.992 649.216 113.632 621.056 153.568 610.304 202.208 618.496 250.336 626.688 298.464 653.312 340.448 693.76 369.12 724.992 391.136 761.856 402.912 799.744 402.912 852.992 402.912 903.68 379.36 939.008 338.4 970.752 301.024 986.112 253.92 982.528 204.768 978.944 159.712 959.488 117.728 926.72 86.496L923.648 83.424 993.28-17.44C1000.448-28.192 997.888-42.528 987.648-50.208 983.04-52.256 978.432-53.792 973.824-53.792ZM888.32 69.6L963.072-38.432C965.12-40.992 968.192-43.04 971.776-43.552 975.36-44.064 978.944-43.552 981.504-41.504 987.648-37.408 988.672-29.216 984.576-23.072L909.824 84.96 919.04 94.176C949.76 123.36 968.192 163.296 971.776 205.792 975.36 251.872 960.512 296.416 930.816 331.744 897.536 370.144 849.92 392.16 799.744 392.16 763.904 392.16 729.6 380.896 699.904 360.416 662.016 333.792 636.928 293.856 628.736 248.288 621.056 202.72 631.296 156.64 657.92 119.264 690.176 73.184 743.424 45.536 799.232 45.536 826.368 45.536 852.48 51.68 876.544 63.968L888.32 69.6ZM799.744 72.16C791.552 72.16 782.848 72.672 774.656 74.208 736.256 80.864 702.464 102.368 679.936 134.112 657.408 166.368 648.704 204.768 655.36 243.68 662.016 282.08 683.52 315.872 715.264 338.4 739.84 355.808 769.024 365.024 799.744 365.024 847.36 365.024 892.416 341.984 919.552 303.072 942.08 271.328 950.784 232.416 944.128 193.504 937.472 155.104 915.968 121.312 884.224 98.784 858.624 81.376 829.952 72.16 799.744 72.16ZM799.232 355.296C771.072 355.296 743.936 346.592 720.896 330.208 691.2 309.216 671.232 277.984 665.088 242.144 658.944 206.304 667.136 169.952 688.128 140.256 709.12 110.56 740.352 90.592 776.192 84.448 812.032 78.304 848.384 86.496 878.08 107.488 907.776 128.48 927.744 159.712 933.888 195.552 940.032 231.392 931.84 267.744 910.848 297.44 885.248 333.792 843.264 355.296 799.232 355.296ZM973.824-56.352C972.288-56.352 970.752-56.352 969.216-55.84 962.56-54.816 956.416-50.72 952.32-45.088L883.712 53.728 881.664 52.704C855.552 39.392 827.392 32.736 798.72 32.736 738.816 32.736 681.984 62.432 647.168 112.096 618.496 152.544 607.744 202.208 615.936 250.848 624.64 300 651.264 342.496 692.224 371.168 723.968 393.696 761.344 405.472 799.744 405.472 854.016 405.472 905.216 381.92 940.544 340.448 972.8 302.56 988.672 254.944 984.576 205.28 980.992 159.712 961.024 117.216 928.256 85.472L926.72 83.936 995.328-14.88C1003.52-26.656 1000.448-43.04 989.184-51.232 984.064-54.816 978.944-56.352 973.824-56.352ZM885.76 59.872L956.928-42.528C960-47.136 965.12-50.208 970.24-51.232 975.872-52.256 981.504-50.72 985.6-47.648 994.816-40.992 997.376-28.192 990.72-18.464L919.552 83.936 924.16 88.544C956.416 119.264 975.872 160.736 978.944 204.768 982.528 252.896 967.168 299.488 935.936 336.352A179.7632 179.7632 0 0 1 798.72 399.84C761.344 399.84 724.992 388.064 694.272 366.56 654.848 338.912 628.224 297.44 620.032 249.824 611.84 202.208 622.592 154.08 650.24 114.656 684.032 66.528 739.328 37.856 797.696 37.856 825.856 37.856 852.992 44.512 878.592 56.8L885.76 59.872ZM973.824-46.112H971.264C967.168-45.6 963.584-43.04 961.024-39.968L887.296 66.016 877.568 60.896C852.992 48.608 826.368 42.464 799.232 42.464 742.4 42.464 688.64 70.624 655.872 117.216 628.736 155.616 618.496 202.208 626.688 248.288 634.88 294.368 660.48 334.816 698.88 361.952 729.088 382.944 763.904 394.208 800.256 394.208 851.456 394.208 900.096 371.68 933.376 332.768 964.096 296.928 978.944 251.872 975.36 204.768 971.776 161.76 952.832 121.312 922.112 91.616L914.432 83.936 987.648-22.048C992.768-29.216 990.72-38.944 984.064-44.064 979.968-45.088 976.896-46.112 973.824-46.112ZM888.832 73.184L964.608-36.384C966.144-38.432 968.704-39.968 971.264-40.48 974.336-40.992 976.896-40.48 979.456-38.432 984.064-34.848 985.6-28.192 982.016-23.584L906.24 85.472 917.504 96.224C947.712 125.408 966.144 164.32 969.216 206.304 972.8 251.872 958.464 295.904 928.768 330.208 896 368.096 848.896 390.112 799.232 390.112 763.904 390.112 730.112 379.36 700.928 358.368 663.552 332.256 638.976 292.832 630.784 248.288 623.104 203.232 633.344 158.176 659.456 120.8 691.712 75.232 743.424 48.096 798.72 48.096 825.344 48.096 850.944 54.24 875.008 66.016L888.832 73.184ZM799.744 69.6C791.04 69.6 782.336 70.112 774.144 71.648 734.72 78.304 700.928 100.32 677.888 132.576 654.848 165.344 646.144 204.768 652.8 243.68 659.456 283.104 681.472 317.408 713.728 339.936 738.816 357.856 768.512 367.072 799.744 367.072 848.384 367.072 893.952 343.52 921.6 304.096 944.64 271.328 953.344 231.904 946.688 192.48 940.032 153.056 918.016 118.752 885.76 96.224 859.648 79.328 830.464 69.6 799.744 69.6ZM799.232 362.976C769.536 362.976 740.864 353.76 716.288 336.864 685.056 314.848 664.064 281.568 657.408 243.68 650.752 205.792 659.456 167.392 681.472 136.16S736.768 83.936 774.656 77.28C782.848 75.744 791.04 75.232 799.232 75.232 828.928 75.232 857.6 84.448 882.176 101.344 913.408 123.36 934.4 156.64 941.056 194.528 947.712 232.416 939.008 270.816 916.992 302.048 889.856 339.936 845.824 362.976 799.232 362.976ZM799.744 79.84C791.552 79.84 783.872 80.352 775.68 81.888 739.328 88.032 707.072 108.512 686.08 138.72 664.576 168.928 656.384 205.792 662.528 242.656 668.672 279.008 689.152 311.264 719.36 332.256 742.912 348.64 770.56 357.344 799.232 357.344 844.288 357.344 886.784 335.328 912.896 298.464 934.4 268.256 942.592 231.392 935.936 194.528 929.792 158.176 909.312 125.92 879.104 104.416 855.552 88.544 827.904 79.84 799.744 79.84ZM799.232 352.736C771.584 352.736 744.96 344.544 722.432 328.16 693.248 307.68 673.792 276.96 667.648 241.632 661.504 206.304 669.696 170.976 690.176 141.792 710.656 112.608 741.376 93.152 776.704 87.008 812.032 80.864 847.36 89.056 876.544 109.536 905.728 130.016 925.184 160.736 931.328 196.064 937.472 231.392 929.28 266.72 908.8 295.904 883.712 331.232 842.752 352.736 799.232 352.736ZM857.088 465.888C857.088 458.208 860.672 450.528 866.816 445.92 870.912 442.848 876.032 440.8 881.664 440.8 884.224 440.8 886.272 441.312 888.832 441.824 902.144 445.92 911.36 458.208 911.36 472.032V546.272C911.36 548.32 910.848 550.88 910.336 553.952 910.336 554.976 909.824 555.488 909.312 556L908.8 556.512C907.776 558.56 906.752 560.608 905.216 562.144L899.072 567.264 896.512 568.8 895.488 569.312 894.976 569.824 534.528 711.136C527.872 713.696 520.704 715.232 513.536 715.232 507.392 715.232 501.76 714.208 496.64 712.672 496.128 712.672 495.616 712.16 495.104 712.16L493.056 711.136 492.544 710.624H492.032L131.072 571.872 129.024 570.848C128.512 570.848 128.512 570.848 128 570.336 126.976 569.824 125.44 569.312 124.416 568.288L120.832 564.704C118.784 562.656 117.248 560.608 115.712 558.048L115.2 556.512C114.176 554.464 113.664 551.904 113.152 548.832V139.744C113.152 116.192 126.976 95.2 148.992 85.984L492.032-57.888C499.2-60.96 506.88-61.984 514.56-61.984 522.24-61.984 529.92-60.448 537.6-56.864L655.872-5.664C669.184-0.032 676.352 15.328 672.256 29.152V29.664C670.208 36.832 665.088 42.464 658.432 45.536 655.36 47.072 651.264 48.096 647.68 48.096 644.096 48.096 641.024 47.584 637.44 46.048L556.032 10.72 541.696 4.576V379.36L548.352 381.92 843.776 500.704 857.6 506.336V465.888ZM239.104 556L510.464 660.96 514.048 662.496 517.632 660.96 589.312 632.8 612.864 623.584 589.312 613.856 327.168 504.288 323.072 502.752 318.976 504.288 238.592 536.544 215.04 546.272 239.104 556ZM486.912 371.68V3.552L472.576 9.696 173.568 135.136 167.424 137.696V505.824L181.248 500.192 292.352 456.16 299.008 453.6V446.944L299.52 351.712C299.52 344.544 302.592 337.888 308.224 333.28 312.832 329.184 318.976 326.624 325.12 326.624H328.192C339.968 327.648 349.184 337.376 349.184 349.152L352.768 417.248 353.28 431.584 366.592 426.464 480.256 381.408 486.912 378.848V371.68ZM786.432 536.544L517.632 428.512 514.048 426.976 510.464 428.512 419.328 464.864 395.776 474.08 418.816 483.808 681.984 593.376 685.568 594.912 689.664 593.376 786.432 555.488 810.496 546.272 786.432 536.544ZM514.048-69.152C505.344-69.152 497.152-67.616 488.96-64.544L145.92 79.328C121.344 89.568 105.472 113.632 105.472 140.256V548.832L105.984 550.368C106.496 554.464 107.008 557.024 108.032 559.584L109.056 561.632C110.592 565.216 113.152 568.288 115.712 570.848L120.32 574.944C122.368 576.48 123.904 576.992 125.44 577.504L128.512 578.528 489.984 718.816 491.52 719.84 494.592 721.376C500.224 723.424 506.88 723.936 513.536 723.936 521.728 723.936 529.92 722.4 537.6 719.328L899.584 577.504 900.608 576.48 903.68 574.432 910.336 568.288C912.384 566.24 913.92 563.168 914.944 560.608L915.456 559.584C915.968 558.56 916.48 557.536 916.992 556 918.016 552.416 918.528 549.344 918.528 546.272V472.032C918.528 454.624 906.752 439.264 890.368 434.144 880.64 431.072 869.888 433.12 861.696 439.264 853.504 445.408 848.384 455.136 848.384 465.376V494.56L547.84 373.728V15.84L632.832 52.704C641.536 56.288 651.264 56.288 659.968 52.192 668.672 48.096 674.816 40.928 677.888 31.712V31.2C683.008 13.28 674.304-5.664 657.408-12.832L539.136-64.032C531.456-67.616 522.752-69.152 514.048-69.152ZM120.832 545.248V139.744C120.832 119.264 133.12 100.832 152.064 93.152L495.104-50.72C507.904-55.84 521.216-55.84 534.528-50.208L652.8 0.992C662.528 5.088 667.648 16.352 664.576 26.592V27.104C663.04 32.224 659.456 35.808 654.848 38.368 650.24 40.416 645.12 40.416 640.512 38.368L534.016-7.712V384.48L865.28 517.6V465.888C865.28 460.256 867.84 455.648 871.936 452.064 876.544 448.992 881.664 447.968 887.296 449.504 897.536 452.576 904.192 461.792 904.192 472.544V546.272C904.192 547.808 903.68 549.856 903.168 551.904 903.168 552.416 903.168 552.416 902.656 552.928L902.144 554.464C901.632 555.488 901.12 557.024 900.096 558.048L894.976 562.656 891.904 564.704 532.48 705.504C526.848 707.552 520.704 709.088 514.048 709.088 508.928 709.088 503.808 708.576 499.712 707.04L495.104 704.48 131.072 563.168C130.56 563.168 130.048 562.656 129.536 562.656L125.952 559.584C124.928 558.56 123.392 556.512 122.88 554.976L122.368 553.952C121.856 552.416 121.344 550.88 120.832 548.32V545.248ZM494.592-7.712L159.744 132.576V517.6L306.688 459.232 307.2 351.712C307.2 347.104 309.248 341.984 313.344 338.912 316.928 335.84 322.048 333.792 327.168 334.304 335.36 335.328 341.504 341.472 342.016 349.152L347.136 442.848 495.104 383.968V-7.712ZM175.104 142.816L176.64 142.304 479.232 15.328V373.728L360.96 420.832 357.376 349.152C356.864 333.792 345.088 320.992 329.216 319.456H325.632C317.44 319.456 309.76 322.528 303.616 327.648 295.936 333.28 291.84 342.496 291.84 351.2L291.328 448.48 175.104 494.56V142.816ZM514.048 418.784L375.296 474.08 685.568 603.616 830.976 546.784 514.048 418.784ZM416.256 474.08L514.048 435.168 789.504 545.76 685.568 586.72 416.256 474.08ZM323.584 494.56L194.048 546.272 514.048 670.176 633.344 623.072 323.584 494.56ZM236.032 546.272L323.584 510.944 592.896 623.072 514.56 653.792 513.536 653.28 236.032 546.272Z"  horiz-adv-x="1024" vert-adv-y="1024"  />

      
      <glyph glyph-name="recommend" unicode="&#xE010;" d="M951.4667 564.5333C930.1333 577.3333 908.8 581.6 887.4667 573.0667L733.8667 509.0667 567.4667 735.2C554.6667 752.2667 533.3333 760.8 512 760.8S469.3333 752.2667 456.5333 730.9333L290.1333 509.0667 140.8 573.0667C115.2 581.6 93.8667 577.3333 72.5333 564.5333S42.6667 526.1333 46.9333 504.8L85.3333-58.4C85.3333-88.2667 110.9333-109.6 140.8-109.6H887.4667C917.3333-109.6 938.6667-88.2667 942.9333-58.4L985.6 504.8C981.3333 526.1333 968.5333 551.7333 951.4667 564.5333ZM857.6-28.5333H162.1333L128 487.7333 273.0667 428C298.6667 415.2 332.8 423.7333 349.8667 449.3333L512 671.2 674.1333 453.6C691.2 423.7333 725.3333 415.2 755.2 428L896 487.7333 857.6-28.5333ZM674.1333 389.6L524.8 598.6667C516.2667 607.2 503.4667 607.2 499.2 598.6667L349.8667 389.6C345.6 381.0667 337.0667 381.0667 328.5333 385.3333L192 445.0667C179.2 449.3333 166.4 436.5333 166.4 423.7333L192 69.6 200.5333-24.2667C200.5333-32.8 209.0667-41.3333 217.6-41.3333H806.4C814.9333-41.3333 823.4667-32.8 823.4667-24.2667L832 69.6 857.6 423.7333C857.6 436.5333 844.8 449.3333 836.2667 445.0667L695.4667 385.3333C682.6667 381.0667 678.4 381.0667 674.1333 389.6ZM136.5333 112.2667H887.4667V31.2H136.5333Z"  horiz-adv-x="1024" vert-adv-y="1024"  />

      
      <glyph glyph-name="submit" unicode="&#xE011;" d="M896 402.4C873.6 402.4 854.4 383.2 854.4 360.8V2.4C854.4-10.4 851.2-20 841.6-26.4S822.4-39.2 812.8-39.2H214.4C201.6-39.2 192-36 185.6-26.4S172.8-7.2 172.8 2.4V600.8C172.8 613.6 176 623.2 185.6 629.6S204.8 642.4 214.4 642.4H640C662.4 642.4 681.6 661.6 681.6 684 681.6 706.4 662.4 725.6 640 725.6H214.4C144 725.6 86.4 668 86.4 597.6V-0.8C86.4-71.2 144-128.8 214.4-128.8H812.8C883.2-128.8 940.8-71.2 940.8-0.8V360.8C940.8 386.4 921.6 405.6 896 402.4ZM371.2 418.4C352 437.6 323.2 437.6 304 418.4 284.8 399.2 284.8 367.2 300.8 348L470.4 181.6C499.2 152.8 547.2 152.8 576 181.6L928 565.6C947.2 584.8 944 616.8 924.8 632.8 905.6 652 873.6 652 854.4 632.8L521.6 271.2 371.2 418.4Z"  horiz-adv-x="1024" vert-adv-y="1024"  />

      
      <glyph glyph-name="shipinzhanweitu" unicode="&#xE012;" d="M772.5056 418.5109L935.7995 532.1067C951.6373 543.0293 974.0288 539.2064 985.4976 523.3685 989.8667 517.3611 992.0512 510.2613 992.0512 503.1616V67.8933C992.0512 48.2325 976.2133 32.3947 956.5525 32.3947 949.4528 32.3947 942.3531 34.5792 936.3456 38.9483L773.0517 152.544V83.7312C773.0517 14.9184 717.3461-40.7872 648.5333-40.7872H157.0133C88.2005-40.7872 32.4949 14.9184 32.4949 83.7312V473.6704C32.4949 542.4832 88.2005 598.1888 157.0133 598.1888H647.9872C716.8 598.1888 772.5056 542.4832 772.5056 473.6704V418.5109ZM357.9904 228.4565L319.7611 283.616C308.2923 299.4539 286.4469 303.8229 270.0629 292.3541 266.7861 290.1696 263.5093 286.8928 261.3248 283.616L160.2901 138.8907C148.8213 123.0528 153.1904 100.6613 169.0283 89.1925 175.0357 84.8235 182.1355 82.6389 189.2352 82.6389H621.2267C640.8875 82.6389 656.7253 98.4768 656.7253 118.1376 656.7253 125.2373 654.5408 132.3371 650.1717 138.3445L502.7157 350.2443C495.616 360.0747 484.6933 366.6283 472.6784 366.0821 460.6635 365.536 450.2869 360.0747 444.2795 350.7904L357.9904 228.4565ZM256.4096 339.3216C293.5467 339.3216 324.1301 369.3589 324.1301 406.496 324.1301 443.6331 294.0928 474.2165 256.9557 473.6704H255.8635C218.7264 473.6704 188.6891 443.6331 188.6891 406.496 188.6891 369.3589 219.2725 338.7755 256.4096 339.3216Z"  horiz-adv-x="1024" vert-adv-y="1024"  />

      
      <glyph glyph-name="shipin" unicode="&#xE013;" d="M224.256 630.752C224.256 646.624 237.056 659.424 252.928 659.424 268.8 659.424 281.6 646.624 281.6 630.752V-2.592C281.6-18.464 268.8-31.264 252.928-31.264 237.056-31.264 224.256-18.464 224.256-2.592V630.752ZM425.472 400.864C425.472 416.224 436.224 423.392 450.56 416.224L604.16 338.912C632.32 324.576 631.808 301.536 604.16 287.712L581.632 276.448 451.072 211.424C436.736 204.768 424.96 211.424 424.96 226.784V400.864ZM51.2 400.352C50.688 415.712 63.488 429.024 78.848 429.024H251.904C267.776 429.536 281.088 416.736 281.088 400.864V400.352C281.6 384.992 268.8 371.68 253.44 371.68H80.896C65.024 371.168 51.712 383.968 51.712 399.84 51.2 399.84 51.2 400.352 51.2 400.352ZM51.2 227.808C50.688 243.168 63.488 256.48 78.848 256.48H251.904C267.776 256.992 281.088 244.192 281.088 228.32V227.808C281.6 212.448 268.8 199.136 253.44 199.136H80.896C65.024 198.624 51.712 211.424 51.712 227.296 51.2 227.296 51.2 227.296 51.2 227.808ZM742.4 400.352C741.888 415.712 754.688 429.024 770.048 429.024H943.104C958.976 428.512 971.264 415.712 971.264 400.352 971.776 384.992 958.976 371.68 943.616 371.68H770.56C754.688 371.68 742.4 384.48 742.4 400.352ZM742.4 227.808C741.888 243.168 754.688 256.48 770.048 256.48H943.104C958.976 255.968 971.264 243.168 971.264 227.808 971.776 212.448 958.976 199.136 943.616 199.136H770.56C754.688 199.136 742.4 211.936 742.4 227.808ZM742.4 630.752C742.4 646.624 755.2 659.424 771.072 659.424 786.944 659.424 799.744 646.624 799.744 630.752V-2.592C799.744-18.464 786.944-31.264 771.072-31.264 755.2-31.264 742.4-18.464 742.4-2.592V630.752ZM903.68 659.424H120.32C82.432 659.936 51.712 629.216 51.2 591.328V37.344C51.712-0.544 82.432-31.264 120.32-31.776H903.168C941.056-32.288 971.776-1.568 972.288 36.32V590.816C971.776 628.704 941.568 659.424 903.68 659.424ZM914.944 72.16C914.944 47.072 894.464 26.592 869.376 26.08H154.624C129.536 26.592 109.056 47.072 109.056 72.16V556C109.056 581.088 129.536 601.568 154.624 602.08H869.888C894.976 601.568 915.456 581.088 915.456 556L914.944 72.16Z"  horiz-adv-x="1024" vert-adv-y="1024"  />

      
      <glyph glyph-name="termination" unicode="&#xE014;" d="M741.76 333.92A248.96 248.96 0 1 1 990.72 84.96 248.96 248.96 0 0 1 741.76 333.92ZM741.76-100A184.96 184.96 0 1 0 926.72 84.96 184.96 184.96 0 0 0 741.76-100ZM110.08-20V411.36L881.92 411.36V321.12H960V449.12A37.12 37.12 0 0 1 956.16 465.76L851.2 689.76A128 128 0 0 1 734.08 764H256A128 128 0 0 1 140.8 689.12L37.12 467.04A34.56 34.56 0 0 1 33.28 451.04V-20A102.4 102.4 0 0 1 135.68-122.4H496V-45.6H135.68A25.6 25.6 0 0 0 110.08-20ZM734.08 684A53.12 53.12 0 0 0 782.08 653.92L860.8 492H536.32V684ZM209.92 653.92A54.4 54.4 0 0 0 256 684H458.88L458.88 485.6H131.2ZM854.4 116.96H629.12A32 32 0 1 1 629.12 52.96H854.4A32 32 0 1 1 854.4 116.96Z"  horiz-adv-x="1024" vert-adv-y="1024"  />

      
      <glyph glyph-name="banjia" unicode="&#xE015;" d="M284 615H350L359 636C359 639 362 645 374 645H779C785 645 794 642 794 636L851 495V492C863 459 851 426 824 405H821V402C824 393 824 384 824 375 824 363 821 348 815 333L812 327 818 330C836 336 854 345 866 357A138 138 0 0 1 917 465C917 480 914 495 911 510 911 513 911 513 908 516L851 660C839 693 806 717 770 714H365C338 714 308 693 296 660L275 615H284C281 615 281 615 284 615ZM611 54C611 36 626 21 644 21H893C896 21 902 21 905 24 908 24 911 27 914 30 917 33 920 36 920 39 920 42 923 48 923 51S923 60 920 63C917 66 917 69 914 72L854 132C842 144 821 144 809 132 803 126 800 117 800 111S803 96 809 90L812 87H638C626 87 611 72 611 54ZM236 186C275 186 311 201 338 231 362 207 395 192 428 189 467 186 503 198 533 222L542 231C566 207 599 189 632 186H644C677 186 710 198 737 219A138 138 0 0 1 788 327C788 342 785 357 782 372 782 375 782 375 779 378L722 522C710 555 677 579 641 576H236C203 579 173 558 161 525L98 378V372C77 306 107 234 167 201 188 189 212 183 236 186ZM506 288C497 270 479 258 458 252 437 246 419 249 401 261 392 267 383 276 377 285 374 288 374 294 368 297 350 312 326 312 308 297 305 294 302 291 302 288 287 267 263 252 236 252 224 252 212 255 200 261 167 279 152 318 164 354V357L224 501C224 504 227 510 239 510H644C650 510 659 507 659 501L716 360V357C728 321 713 282 680 264L677 261C668 258 656 255 644 255H641C614 255 590 270 578 291 575 297 572 300 569 303 563 312 551 315 539 315S518 309 509 303C509 297 509 291 506 288ZM893 0H644C641 0 635 0 632-3 629-3 626-6 623-9 620-12 617-15 617-18 617-21 614-27 614-30 614-33 614-39 617-42 617-45 620-48 623-51L683-111C689-117 698-120 707-120 716-120 725-117 731-111 737-105 740-96 740-90S737-75 731-69L722-63H896C914-63 929-48 929-30 926-15 911 0 893 0ZM509-57H215 212S209-54 209-51V105C209 126 194 144 173 144S137 126 137 105V-51C137-72 146-93 158-111 173-126 191-135 212-135H506C527-135 545-117 545-96 548-75 530-57 509-57Z"  horiz-adv-x="1024" vert-adv-y="1024"  />

      
      <glyph glyph-name="upgrade" unicode="&#xE016;" d="M741.5 357.375V159.375C741.5 143.625 729.125 131.25 713.375 131.25H310.625C294.875 131.25 282.5 143.625 282.5 159.375V357.375H161.5625A27.8438 27.8438 0 0 0 143.5625 406.875L463.625 675.1875C485.5625 696.5625 524.375 699.9375 550.8125 682.5 554.1875 680.25 557 678 559.8125 675.1875L879.875 406.875C891.6875 396.75 893.375 379.3125 883.25 367.5A28.6875 28.6875 0 0 0 861.875 357.375H741.5ZM315.125 75H708.875C724.625 75 737 62.625 737 46.875S724.625 18.75 708.875 18.75H315.125C299.375 18.75 287 31.125 287 46.875S299.375 75 315.125 75ZM315.125-37.5H708.875C724.625-37.5 737-49.875 737-65.625S724.625-93.75 708.875-93.75H315.125C299.375-93.75 287-81.375 287-65.625S299.375-37.5 315.125-37.5Z"  horiz-adv-x="1024" vert-adv-y="1024"  />

      
      <glyph glyph-name="yiru2" unicode="&#xE017;" d="M944 152.8C937.6 159.2 928 165.6 915.2 165.6H710.4L761.6 216.8C768 223.2 774.4 232.8 774.4 245.6S771.2 264.8 761.6 274.4C745.6 290.4 720 290.4 707.2 274.4L588.8 156C572.8 140 572.8 114.4 588.8 101.6L704-20C710.4-26.4 720-32.8 732.8-32.8 742.4-32.8 752-29.6 761.6-20 768-13.6 774.4-4 774.4 8.8 774.4 18.4 771.2 28 761.6 37.6L710.4 88.8H915.2C937.6 88.8 953.6 108 953.6 127.2 953.6 136.8 950.4 146.4 944 152.8ZM563.2-26.4H195.2C182.4-26.4 172.8-23.2 166.4-13.6S153.6 5.6 153.6 15.2V581.6C153.6 594.4 156.8 604 166.4 610.4S185.6 623.2 195.2 623.2H297.6V335.2C297.6 319.2 316.8 306.4 332.8 312.8L476.8 370.4C486.4 373.6 499.2 373.6 512 370.4L652.8 312.8C668.8 306.4 688 316 688 335.2V623.2H790.4C803.2 623.2 812.8 620 819.2 610.4S832 591.2 832 581.6V504.8C832 482.4 851.2 463.2 873.6 463.2 896 463.2 915.2 482.4 915.2 504.8V581.6C915.2 652 857.6 709.6 787.2 709.6H195.2C124.8 709.6 67.2 652 67.2 581.6V15.2C67.2-55.2 124.8-112.8 195.2-112.8H566.4C588.8-112.8 608-93.6 608-71.2 608-45.6 588.8-26.4 563.2-26.4ZM377.6 626.4H608V424.8C608 421.6 604.8 418.4 601.6 418.4L512 456.8C502.4 460 489.6 460 476.8 456.8L384 418.4C380.8 418.4 377.6 418.4 377.6 424.8V626.4Z"  horiz-adv-x="1024" vert-adv-y="1024"  />

      
      <glyph glyph-name="yiru" unicode="&#xE018;" d="M889.6 300C889.6 322.4 870.4 341.6 848 341.6H563.2L611.2 389.6C617.6 396 624 408.8 624 418.4 624 431.2 620.8 440.8 611.2 447.2 595.2 463.2 569.6 463.2 553.6 447.2L432 325.6C416 309.6 416 284 432 264.8L553.6 143.2C560 136.8 572.8 130.4 582.4 130.4 592 130.4 604.8 133.6 611.2 143.2 617.6 149.6 624 162.4 624 172 624 181.6 620.8 194.4 611.2 200.8L560 252H848C870.4 258.4 889.6 277.6 889.6 300ZM921.6 479.2V575.2C921.6 648.8 860.8 709.6 787.2 709.6H233.6C160 709.6 99.2 652 99.2 575.2V21.6C99.2-52 160-112.8 233.6-112.8H787.2C860.8-112.8 921.6-52 921.6 21.6V117.6C921.6 140 902.4 159.2 880 159.2 857.6 159.2 838.4 140 838.4 117.6V21.6C838.4-7.2 816-29.6 787.2-29.6H233.6C204.8-29.6 182.4-7.2 182.4 21.6V575.2C182.4 604 204.8 626.4 233.6 626.4H787.2C816 626.4 838.4 604 838.4 575.2V476C838.4 453.6 857.6 434.4 880 434.4 902.4 437.6 921.6 456.8 921.6 479.2Z"  horiz-adv-x="1024" vert-adv-y="1024"  />

      
      <glyph glyph-name="chuku" unicode="&#xE019;" d="M559.8125 66.5625C559.8125 46.875 542.9375 30 523.25 30H261.6875L343.25-51.5625C357.3125-65.625 357.3125-88.125 343.25-102.1875S306.6875-116.25 292.625-102.1875L149.1875 41.25C135.125 55.3125 135.125 77.8125 149.1875 91.875L292.625 235.3125C306.6875 249.375 329.1875 249.375 343.25 235.3125S357.3125 198.75 343.25 184.6875L261.6875 103.125H523.25C542.9375 103.125 559.8125 86.25 559.8125 66.5625ZM872 440.625L534.5 702.1875C520.4375 713.4375 500.75 713.4375 489.5 702.1875L152 440.625C143.5625 432.1875 137.9375 423.75 137.9375 409.6875V314.0625C137.9375 294.375 154.8125 277.5 174.5 277.5S211.0625 294.375 211.0625 314.0625V392.8125L512 626.25 812.9375 392.8125V-0.9375C812.9375-12.1875 810.125-20.625 801.6875-26.25S784.8125-37.5 776.375-37.5H663.875C644.1875-37.5 627.3125-54.375 627.3125-74.0625 627.3125-93.75 644.1875-110.625 663.875-110.625H773.5625C835.4375-110.625 886.0625-60 886.0625 1.875V409.6875C886.0625 420.9375 880.4375 432.1875 872 440.625Z"  horiz-adv-x="1024" vert-adv-y="1024"  />

      
      <glyph glyph-name="beizhu" unicode="&#xE01A;" d="M336 373.6C313.6 373.6 300.8 357.6 300.8 338.4 300.8 316 320 303.2 336 303.2H656C678.4 303.2 691.2 319.2 691.2 338.4S675.2 373.6 656 373.6H336ZM694.4 191.2C694.4 213.6 678.4 226.4 659.2 226.4H339.2C316.8 226.4 304 210.4 304 191.2 304 168.8 323.2 156 339.2 156H659.2C678.4 156 694.4 172 694.4 191.2ZM553.6 18.4H240C230.4 18.4 220.8 28 220.8 37.6V444H422.4C432 444 441.6 453.6 441.6 463.2V664.8H739.2C748.8 664.8 758.4 655.2 758.4 645.6V216.8C758.4 197.6 774.4 178.4 796.8 178.4S835.2 194.4 835.2 216.8V703.2C835.2 722.4 819.2 741.6 796.8 741.6H387.2C377.6 741.6 371.2 738.4 364.8 732L156.8 520.8C150.4 514.4 147.2 508 147.2 498.4V-20C147.2-39.2 163.2-58.4 185.6-58.4H553.6C563.2-58.4 572.8-55.2 579.2-48.8 585.6-42.4 588.8-32.8 588.8-23.2 588.8-0.8 572.8 18.4 553.6 18.4ZM246.4 517.6L368 639.2V517.6H246.4ZM902.4 18.4H828.8V92C828.8 111.2 812.8 130.4 790.4 130.4S752 114.4 752 92V18.4H678.4C659.2 18.4 640 2.4 640-20 640-39.2 656-58.4 678.4-58.4H752V-132C752-151.2 768-170.4 790.4-170.4S828.8-154.4 828.8-132V-58.4H902.4C921.6-58.4 940.8-42.4 940.8-20 940.8-0.8 924.8 18.4 902.4 18.4Z"  horiz-adv-x="1024" vert-adv-y="1024"  />

      
      <glyph glyph-name="delivery" unicode="&#xE01B;" d="M80 175.2H278.4C300.8 175.2 316.8 194.4 316.8 213.6 316.8 236 297.6 252 278.4 252H80C57.6 252 41.6 232.8 41.6 213.6 38.4 191.2 57.6 175.2 80 175.2ZM377.6 296.8C400 296.8 416 316 416 335.2S396.8 373.6 377.6 373.6H80C57.6 373.6 41.6 354.4 41.6 335.2 41.6 312.8 60.8 296.8 80 296.8H377.6ZM80 50.4H188.8C211.2 50.4 227.2 69.6 227.2 88.8 227.2 111.2 208 127.2 188.8 127.2H80C57.6 127.2 41.6 108 41.6 88.8 38.4 69.6 57.6 50.4 80 50.4ZM473.6 191.2C473.6 168.8 489.6 152.8 512 152.8H710.4L675.2 117.6C668.8 111.2 662.4 101.6 662.4 92S665.6 72.8 675.2 63.2C681.6 56.8 691.2 50.4 704 50.4 713.6 50.4 723.2 53.6 732.8 63.2L835.2 165.6C851.2 181.6 851.2 204 835.2 220L732.8 322.4C716.8 338.4 694.4 338.4 678.4 322.4 672 316 665.6 306.4 665.6 293.6 665.6 284 668.8 274.4 678.4 264.8L713.6 229.6H515.2C489.6 229.6 473.6 213.6 473.6 191.2ZM976 540L857.6 748C851.2 757.6 838.4 764 825.6 764H198.4C185.6 764 172.8 757.6 166.4 748L48 540C41.6 533.6 38.4 524 38.4 514.4V460C38.4 437.6 57.6 421.6 76.8 421.6S115.2 440.8 115.2 460V472.8H902.4V-39.2C902.4-48.8 899.2-58.4 889.6-68 883.2-74.4 873.6-80.8 860.8-80.8H156.8C147.2-80.8 137.6-77.6 128-68 121.6-61.6 115.2-52 115.2-39.2V-23.2C115.2-0.8 96 15.2 76.8 15.2S38.4-4 38.4-23.2V-39.2C38.4-103.2 92.8-157.6 156.8-157.6H864C928-157.6 982.4-103.2 982.4-39.2V514.4C985.6 524 982.4 533.6 976 540ZM156.8 556L217.6 684H806.4L867.2 556H156.8Z"  horiz-adv-x="1024" vert-adv-y="1024"  />

      
      <glyph glyph-name="notice" unicode="&#xE01C;" d="M742.6097 366.4321C640.7269 585.6753 587.7288 668.9692 421.2992 665.4888 361.9993 664.2891 376.2113 708.4805 330.9915 691.7241 285.8641 674.9678 324.5975 650.4331 278.4022 612.5039 148.7415 506.02 160.6595 407.5518 220.8162 172.8311 246.1419 73.9541 159.7235 69.1157 193.9085-26.6763 218.8914-96.5625 402.974-125.8301 597.1419-53.7949 791.3626 18.2534 913.7855 161.2822 888.8026 231.1685 854.6175 327.0132 785.5355 274.1206 742.6097 366.4321ZM576.1141 5.2544C402.6576-59.0684 260.1297-21.271 254.0916-4.4224 243.7293 24.6211 310.0824 121.415 508.3768 194.9795 706.658 268.5967 817.3607 241.2803 828.9095 208.8882 835.765 189.7192 749.6102 69.6431 576.1141 5.2544ZM520.3475 161.3877C429.7103 127.73 366.7059 89.2603 325.8631 54.627 354.5902 28.5366 408.3924 22.1821 461.9574 42.063 530.1825 67.3228 572.1458 125.436 555.5741 171.8423L554.849 173.4375C543.6429 169.7856 532.16 165.791 520.3475 161.3877Z"  horiz-adv-x="1024" vert-adv-y="1024"  />

      
      <glyph glyph-name="notice1" unicode="&#xE01D;" d="M723.2 120.8C707.2 136.8 681.6 136.8 665.6 120.8S649.6 79.2 665.6 63.2L793.6-64.8C800-71.2 812.8-77.6 822.4-77.6S844.8-74.4 851.2-64.8C867.2-48.8 867.2-23.2 851.2-7.2L723.2 120.8ZM953.6 325.6H774.4C752 325.6 732.8 306.4 732.8 284S752 242.4 774.4 242.4H953.6C976 242.4 995.2 261.6 995.2 284S976 325.6 953.6 325.6ZM694.4 434.4C704 434.4 716.8 437.6 723.2 447.2L851.2 575.2C867.2 591.2 867.2 616.8 851.2 632.8 844.8 639.2 832 645.6 822.4 645.6S800 639.2 793.6 629.6L665.6 501.6C649.6 485.6 649.6 460 665.6 444 672 437.6 684.8 434.4 694.4 434.4ZM556.8 684C547.2 684 537.6 680.8 531.2 674.4L291.2 482.4 288 479.2H99.2C76.8 479.2 57.6 460 57.6 437.6V133.6C57.6 111.2 76.8 92 99.2 92H288L291.2 88.8 531.2-103.2C537.6-109.6 547.2-112.8 556.8-112.8 569.6-112.8 582.4-106.4 588.8-96.8 595.2-90.4 598.4-80.8 598.4-71.2V639.2C598.4 652 595.2 661.6 585.6 668S569.6 684 556.8 684ZM515.2 533.6V18.4L502.4 28 329.6 165.6C323.2 172 313.6 175.2 304 175.2H144V399.2H307.2C316.8 399.2 326.4 402.4 332.8 408.8L505.6 546.4 518.4 556V533.6Z"  horiz-adv-x="1024" vert-adv-y="1024"  />

      
      <glyph glyph-name="qingchu1" unicode="&#xE01E;" d="M51.2 197.6L662.4-176.8C665.6-180 668.8-180 672-180H675.2L678.4-183.2C681.6-186.4 688-186.4 694.4-186.4S710.4-183.2 713.6-176.8C800-93.6 867.2 2.4 912 101.6 960 204 982.4 309.6 982.4 412 982.4 418.4 979.2 424.8 976 428 972.8 434.4 969.6 437.6 963.2 440.8L809.6 517.6 800 524 806.4 536.8 908.8 738.4C915.2 748 902.4 767.2 886.4 773.6 880 776.8 870.4 780 864 780H854.4C851.2 780 848 776.8 844.8 773.6L742.4 572 736 559.2 723.2 565.6 553.6 645.6C547.2 648.8 544 648.8 537.6 648.8 524.8 648.8 512 642.4 505.6 632.8 476.8 584.8 438.4 524 412.8 495.2 387.2 466.4 358.4 437.6 329.6 415.2 252.8 348 160 296.8 57.6 258.4 44.8 255.2 38.4 242.4 38.4 229.6 35.2 213.6 41.6 204 51.2 197.6ZM489.6 498.4C508.8 524 524.8 546.4 540.8 575.2L547.2 588 560 581.6 915.2 402.4 924.8 399.2V389.6C921.6 348 918.4 306.4 905.6 264.8L899.2 245.6 880 255.2 492.8 476 480 482.4 489.6 498.4ZM153.6 232.8C230.4 268 304 316 364.8 367.2 387.2 386.4 409.6 405.6 428.8 428L438.4 437.6 448 431.2 870.4 191.2 883.2 184.8 876.8 172C870.4 156 864 140 857.6 127.2 819.2 40.8 761.6-39.2 694.4-112.8L684.8-122.4 675.2-116 556.8-45.6 540.8-36 556.8-23.2 633.6 50.4C646.4 63.2 646.4 79.2 633.6 92 627.2 98.4 620.8 101.6 614.4 101.6 604.8 101.6 598.4 98.4 595.2 92L502.4 2.4 492.8-7.2 483.2-0.8 342.4 85.6 320 98.4 339.2 111.2 422.4 168.8C428.8 172 432 178.4 435.2 188 435.2 194.4 435.2 204 428.8 210.4 422.4 216.8 412.8 223.2 403.2 223.2 396.8 223.2 390.4 220 387.2 216.8L272 136.8 262.4 130.4 252.8 136.8 150.4 200.8 124.8 216.8 153.6 232.8Z"  horiz-adv-x="1024" vert-adv-y="1024"  />

      
      <glyph glyph-name="import" unicode="&#xE01F;" d="M513.4667-1.7333C513.3333 7.3333 509.3333 16 501.7333 23.4667 501.7333 23.4667 462.1333 62.8 422.6667 102.2667 402.9333 122 383.0667 141.7333 368.2667 156.5333L350.4 174.4 345.3333 179.4667C344.8 180 344.2667 180.5333 343.7333 181.2L342.2667 182.8 342.1333 182.6667C335.8667 188.2667 328 191.3333 319.4667 191.3333 310.2667 191.3333 301.7333 187.7333 295.3333 181.3333 288.9333 175.0667 285.4667 166.5333 285.4667 157.6 285.4667 148.6667 288.9333 140.1333 295.4667 133.6L395.0667 31.4667H77.0667C58.2667 31.4667 45.2 18.2667 45.2-0.6667 45.2-19.4667 60.2667-34.8 78.9333-34.8H398.6667L295.7333-136.8C289.3333-143.0667 285.8667-151.6 285.8667-160.6667 285.8667-169.7333 289.3333-178.1333 295.7333-184.5333 302.1333-190.9333 310.6667-194.4 319.8667-194.4 329.0667-194.4 337.6-190.9333 344-184.5333L503.0667-25.3333C509.8667-18.5333 513.4667-10.2667 513.4667-1.7333ZM899.4667 181.7333C878 181.7333 860.5333 164.1333 860.5333 142.5333L860.6667-66.1333C860.6667-80.4 848.9333-92 834.6667-92H562.2667L478.9333-179.4667H864.6667C905.4667-179.4667 938.6667-146.5333 938.6667-105.8667L938.8 142.8C938.8 164.2667 921.0667 181.7333 899.4667 181.7333ZM971.7333 486.5333C971.2 488.4 970.6667 490.2667 969.8667 492.2667L891.3333 687.3333C875.7333 728.8 835.4667 755.3333 791.3333 753.3333H240.4C219.3333 754.6667 198.9333 749.3333 181.2 737.8667 163.4667 726.4 150.2667 709.8667 142.9333 690.2667L58.8 491.7333 58.6667 491.4667V491.2C58.5333 489.7333 58.5333 488.1333 58.6667 486.6667 45.4667 445.6 47.0667 401.0667 63.3333 361.2 79.6 321.0667 109.7333 288 148 268 175.3333 254.2667 205.6 247.3333 235.6 248.1333 289.4667 248.4 340.5333 271.7333 376.1333 312.1333 412.5333 270.2667 463.8667 248.8 515.6 248.8 557.7333 248.8 600.2667 263.0667 634.8 292.4 642.2667 298.8 648.9333 305.3333 654.8 312.1333 686.5333 275.2 730.6667 252.6667 779.3333 248.4 784.8 247.8667 790.4 247.7333 795.8667 247.7333 839.3333 247.7333 881.0667 262.8 914.8 291.2 956 325.8667 980.1333 376.5333 981.0667 430.5333 980.8 449.6 977.7333 468.6667 971.7333 486.5333ZM835.7333 335.0667A111.2933 111.2933 0 0 0 784.5333 323.8667H784.1333C746 323.8667 710.1333 343.8667 690.2667 376.2667 687.8667 381.4667 684.9333 386.1333 681.2 390.1333 673.3333 398.8 661.8667 403.7333 650 403.6 638.1333 403.6 626.6667 398.6667 618.6667 389.8667 614.9333 385.4667 612 380.9333 610.1333 376.4 578.6667 325.0667 511.3333 308.8 460 340.1333 445.2 349.0667 432.6667 361.6 423.7333 376.4 421.4667 381.2 418.8 385.4667 415.6 389.0667L415.4667 389.2A46.9467 46.9467 0 0 1 350.4 389.2L350.2667 389.0667C346.4 384.6667 343.3333 379.7333 341.0667 374.2667 320.1333 342 284.6667 323.0667 246.1333 323.7333 228.1333 323.2 210.1333 327.0667 194 334.9333 145.3333 360.1333 123.0667 416 141.0667 467.8667L141.2 468.1333V470.8L220.4 658 220.5333 658.4C222.5333 663.7333 227.0667 676.1333 250.1333 676.1333H781.0667C794.8 677.3333 807.7333 669.4667 813.0667 656.8L888 473.4667V469.8667L888.1333 469.6C906.1333 418.4 884.5333 362.6667 836.6667 337.0667L834.9333 336.1333 835.7333 335.0667Z"  horiz-adv-x="1024" vert-adv-y="1024"  />

      
      <glyph glyph-name="plus_square2" unicode="&#xE020;" d="M214.4 725.6C144 725.6 86.4 668 86.4 597.6V-0.8C86.4-71.2 144-128.8 214.4-128.8H812.8C883.2-128.8 940.8-71.2 940.8-0.8V597.6C940.8 668 883.2 725.6 812.8 725.6H214.4ZM214.4 642.4H812.8C825.6 642.4 835.2 639.2 841.6 629.6S854.4 610.4 854.4 600.8V2.4C854.4-10.4 851.2-20 841.6-26.4S822.4-39.2 812.8-39.2H214.4C201.6-39.2 192-36 185.6-26.4S172.8-7.2 172.8 2.4V597.6C172.8 610.4 176 620 185.6 626.4S201.6 642.4 214.4 642.4ZM681.6 258.4C704 258.4 723.2 277.6 723.2 300S704 341.6 681.6 341.6H342.4C320 341.6 300.8 322.4 300.8 300S320 258.4 342.4 258.4H681.6Z"  horiz-adv-x="1024" vert-adv-y="1024"  />

      
      <glyph glyph-name="info" unicode="&#xE021;" d="M812.8 588C736 664.8 630.4 712.8 515.2 712.8 400 712.8 291.2 664.8 217.6 588 140.8 511.2 92.8 405.6 92.8 290.4S140.8 66.4 217.6-7.2 400-132 515.2-132C630.4-132 739.2-84 812.8-7.2 889.6 69.6 937.6 175.2 937.6 290.4S889.6 511.2 812.8 588ZM758.4 44C694.4-20 608-58.4 515.2-58.4 419.2-58.4 332.8-20 272 44 208 108 169.6 194.4 169.6 287.2 169.6 383.2 208 469.6 272 530.4 336 594.4 422.4 632.8 515.2 632.8 611.2 632.8 697.6 594.4 758.4 530.4S860.8 380 860.8 287.2C860.8 194.4 822.4 108 758.4 44ZM512 95.2C505.6 98.4 505.6 101.6 505.6 108L576 341.6V351.2C576 376.8 556.8 399.2 531.2 402.4 496 402.4 441.6 364 412.8 316V287.2L454.4 338.4C464 348 473.6 354.4 480 354.4 486.4 351.2 489.6 344.8 486.4 341.6L416 108C406.4 82.4 422.4 53.6 460.8 47.2 515.2 47.2 547.2 82.4 579.2 130.4V159.2L537.6 108C528 101.6 518.4 95.2 512 95.2ZM569.6 530.4C544 530.4 521.6 508 521.6 482.4S544 434.4 569.6 434.4H572.8C598.4 434.4 620.8 456.8 617.6 482.4 617.6 511.2 595.2 530.4 569.6 530.4Z"  horiz-adv-x="1024" vert-adv-y="1024"  />

      
      <glyph glyph-name="plugin1" unicode="&#xE022;" d="M227.2 214.8C227.2 188.4 205.7333 166.9333 179.3333 166.9333H55.6V-40.4C55.6-107.8667 110.5333-162.8 178-162.8H385.4667V-44.4C385.4667-18 406.9333 3.4667 433.3333 3.4667S481.2-18 481.2-44.4V-162.8H688.6667C756.1333-162.8 811.0667-107.8667 811.0667-40.4V92.5333H860.9333C928.4 92.5333 983.3333 147.3333 983.3333 214.8S928.5333 337.2 861.0667 337.2H811.0667V470.2667C811.0667 537.7333 756.1333 592.6667 688.6667 592.6667H555.6V644.5333C555.6 677.2 542.8 708 519.7333 731.0667S466 766.9333 433.3333 766.9333C365.8667 766.9333 310.9333 712.1333 310.9333 644.6667V592.6667H178C110.5333 592.6667 55.6 537.7333 55.6 470.2667V262.8H179.3333C205.7333 262.8 227.3333 241.3333 227.2 214.8ZM179.3333 337.2H130.1333V470.2667C130.1333 496.6667 151.6 518.1333 178 518.1333H385.4667V644.5333C385.6 670.9333 407.0667 692.4 433.4667 692.4 446.2667 692.4 458.2667 687.4667 467.3333 678.4 476.4 669.3333 481.3333 657.3333 481.3333 644.5333V518.1333H688.8C715.2 518.1333 736.6667 496.6667 736.6667 470.2667V262.6667H861.0667C887.4667 262.6667 908.9333 241.2 908.9333 214.8S887.4667 166.9333 861.0667 166.9333H736.6667V-40.4C736.6667-66.8 715.2-88.2667 688.8-88.2667H555.7333V-44.4C555.6 23.0667 500.8 78 433.3333 78S310.9333 23.0667 310.9333-44.4V-88.2667H178C151.6-88.2667 130.1333-66.8 130.1333-40.4V92.5333H179.3333C212 92.5333 242.6667 105.2 265.8667 128.4 289.0667 151.6 301.7333 182.2667 301.7333 214.9333 301.7333 282.4 246.8 337.2 179.3333 337.2Z"  horiz-adv-x="1024" vert-adv-y="1024"  />

      
      <glyph glyph-name="recycle1" unicode="&#xE023;" d="M155 42C164 57 173 69 179 84L188 102C209 138 233 177 254 213 257 216 260 216 263 216L302 198 269 312C269 315 266 318 263 315L143 285 179 264C182 264 182 258 182 255 167 228 92 105 74 69 50 27 56-24 92-60 110-78 128-87 152-90H161L152-78C128-39 128 0 155 42ZM953 54L950 60 947 54 944 51C923 18 890 0 848 0H623V33L536-39C533-42 533-45 536-48L623-126V-87H851C896-87 935-60 953-21 965 6 965 36 953 54ZM587 507L590 504C596 492 605 480 611 468L641 417 599 393 716 363C719 363 722 363 722 366L752 474 755 480 713 459 692 495 602 648C578 690 539 708 488 702 461 699 440 687 422 666L416 660H425C476 660 512 636 536 588 554 558 572 531 587 507ZM704 312S809 135 839 84C851 63 869 51 887 45H899C917 45 932 51 947 63L950 66 776 357 704 312ZM323 327S437 516 461 555C473 576 476 594 470 612 464 630 449 645 422 654H419L248 372 323 327ZM227 0C206 0 185-9 170-24 158-42 152-60 158-81V-84H494V0C494-3 281-3 227 0Z"  horiz-adv-x="1024" vert-adv-y="1024"  />

      
      <glyph glyph-name="ruku" unicode="&#xE024;" d="M505.7707 644.8324C509.8581 645.8573 514.1333 645.8573 518.2208 644.8324 521.1733 644.093 525.0091 642.1487 548.8768 625.3214L824.0768 431.2819C841.8517 418.7477 844.1813 416.6524 845.6661 414.7772 847.7013 412.2091 849.2245 409.2745 850.1504 406.1333 850.8288 403.8391 851.1957 400.7275 851.1957 378.976V24.1771C851.1957 5.6213 851.1659-5.984 850.4533-14.7307 849.7749-23.0293 848.6784-25.3163 848.4053-25.8453 845.952-30.6624 842.0352-34.5792 837.2181-37.0325 836.6891-37.3013 834.4021-38.4021 826.1035-39.0805 817.3611-39.7931 805.7515-39.8229 787.1957-39.8229H638.7968V-116.6229H788.6208C805.3248-116.6229 820.1088-116.6229 832.3584-115.6245 845.4059-114.5579 858.9227-112.1685 872.0853-105.4613 891.3536-95.6437 907.0165-79.9808 916.8341-60.7125 923.5413-47.5499 925.9307-34.0331 926.9973-20.9856 928-8.7317 927.9957 6.0523 927.9957 22.7563L928 382.5643C928.0256 398.3851 928.0469 413.5113 923.8101 427.8733 920.0981 440.439 914.0139 452.1766 905.8816 462.4486 896.5845 474.1897 884.2112 482.8868 871.2661 491.9842L868.3307 494.0484 593.1307 688.0879 589.1541 690.9022C571.9936 703.0507 555.6437 714.6274 536.9003 719.3267 520.5504 723.4257 503.4411 723.4257 487.0955 719.3267 468.352 714.6274 451.9979 703.0507 434.8416 690.9022L430.8608 688.0879 155.6612 494.0484 152.7266 491.9842C139.7824 482.8868 127.4074 474.1892 118.1124 462.4486 109.9797 452.1766 103.8942 440.439 100.1852 427.8733 95.9462 413.5113 95.9693 398.3855 95.9932 382.5643L95.997 378.976V271.7163H172.7966V378.976C172.7966 400.7275 173.1669 403.8391 173.8441 406.1333 174.7712 409.2745 176.2927 412.2091 178.3258 414.7772 179.8106 416.6524 182.1406 418.7477 199.9168 431.2819L475.1189 625.3214C498.9824 642.1487 502.8224 644.093 505.7707 644.8324ZM537.6213 102.0565L378.5749 268.4864 323.0519 215.4219 420.0491 113.9264H95.9949V37.1264H420.0491L323.0519-64.3733 378.5749-117.4336 537.6213 48.9963C551.808 63.84 551.808 87.2128 537.6213 102.0565Z"  horiz-adv-x="1024" vert-adv-y="1024"  />

      
      <glyph glyph-name="shopping_delivery" unicode="&#xE025;" d="M979.2 552.8L851.2 725.6C841.6 735.2 832 741.6 816 741.6H208C192 741.6 182.4 735.2 172.8 725.6L44.8 556C38.4 546.4 35.2 540 35.2 530.4V-36C35.2-106.4 92.8-164 163.2-164H857.6C928-164 985.6-106.4 985.6-36V530.4C985.6 536.8 982.4 546.4 979.2 552.8ZM227.2 658.4H793.6L857.6 572H163.2L227.2 658.4ZM899.2-36C899.2-48.8 896-58.4 886.4-64.8S867.2-77.6 857.6-77.6H163.2C150.4-77.6 140.8-74.4 134.4-64.8S121.6-45.6 121.6-36V485.6H899.2V-36ZM710.4 373.6C697.6 373.6 688 370.4 678.4 360.8L473.6 156 460.8 143.2 448 156 371.2 236C361.6 245.6 352 248.8 339.2 248.8S316.8 245.6 307.2 236C288 216.8 288 188 307.2 172L432 47.2C441.6 37.6 451.2 34.4 464 34.4S486.4 37.6 496 47.2L745.6 296.8C764.8 316 764.8 344.8 745.6 360.8 736 370.4 723.2 373.6 710.4 373.6Z"  horiz-adv-x="1024" vert-adv-y="1024"  />

      
      <glyph glyph-name="size" unicode="&#xE026;" d="M743.2073 604.1696C705.87 605.3126 674.1864 572.3274 673.5192 535.5456 672.854 497.7805 704.7259 465.0173 742.3795 464.7779 780.6675 464.5558 814.0038 496.3366 812.8924 533.894 811.6553 576.089 781.8443 602.9805 743.2073 604.1696ZM743.1429 507.4017C729.3948 507.4017 717.6492 519.1953 717.2675 533.4335 716.7917 548.4659 728.4758 560.5788 743.2708 560.5327 757.7158 560.5 768.7961 549.5475 769.0816 534.991 769.3671 519.625 757.9051 507.4334 743.1429 507.4017ZM947.6649 529.8632C910.5179 566.8813 802.2265 678.0799 786.1627 697.5893 772.2232 714.3694 757.3013 733.9402 735.8406 741.1473 706.9813 750.7817 687.8362 721.7976 669.4873 705.176 644.4685 682.5262 162.8474 216.0173 76.111 132.1686 69.4421 125.7248 49.7895 103.4853 74.5218 78.7356 141.3539 11.9383 205.3883-57.3211 271.1398-125.2472 293.9984-148.9469 305.396-148.8364 329.1756-125.9123 446.8364-12.3959 905.7268 431.809 924.8053 449.3792 949.6031 472.2879 979.8264 497.845 947.6649 529.8632ZM867.1522 473.5896C821.784 429.3971 776.1905 385.4236 730.635 341.4214 597.9255 213.3628 465.1536 85.3411 332.4133-42.6541 308.6041-65.6386 293.2678-65.5444 270.6312-42.1608 232.8211-3.1729 195.0406 35.8448 157.5119 75.0998 140.5915 92.8491 139.3523 106.6913 151.2257 123.4694 169.768 105.6926 188.4362 87.7059 207.263 69.9434 221.0746 56.8624 240.4406 58.7504 244.1552 74.5953 245.9317 82.2926 242.5036 93.8018 237.1712 100.0716 220.9466 119.499 202.6602 137.2012 184.4689 156.3145 188.5641 160.7894 237.9632 208.6812 240.1868 211.0164 259.0454 193.0614 277.6501 175.9037 295.6193 158.1861 304.0647 149.8513 312.9224 145.3457 324.3835 150.3619 337.9412 156.2674 340.4483 172.9975 328.8604 185.8389 311.3998 205.0638 293.015 223.5079 273.8086 243.5718L315.2719 285.7372C315.2719 285.7372 409.6586 197.5855 413.756 193.6979 426.2955 181.7907 439.1861 180.2046 447.9149 190.6812 457.5033 202.1607 454.8356 213.4938 444.8675 223.8435 418.8663 250.7012 392.992 277.6561 367.2109 304.5445 362.8946 308.9897 358.6714 313.5138 353.6869 318.8002 357.7187 323.2454 374.2594 340.2006 376.0696 342.2145 394.7051 325.3084 411.1844 306.9431 429.1536 290.0207 442.7401 277.1639 454.678 274.6558 464.5211 283.8318 474.6498 293.2441 473.5365 307.3238 459.7577 320.6268 442.6787 337.1532 424.517 353.7082 405.9133 370.4096 409.6586 374.4711 462.9013 426.9524 463.6943 427.7301 484.2669 408.8245 503.0957 391.7752 521.6032 374.3933 531.8915 364.7906 542.4961 360.6933 554.3695 370.9161 565.0374 380.0614 565.0999 392.4097 552.4958 404.8244 534.3659 422.6514 514.9077 439.1134 495.16 456.9547 503.6667 464.9877 513.382 474.4328 514.7491 475.7508 533.9883 458.1786 552.8785 441.8886 571.0371 424.9222 584.9745 411.8883 596.3424 410.4587 606.468 421.0326 615.2941 430.2229 614.28 443.8114 602.0555 455.3829 583.9594 472.4158 564.4664 487.9721 545.6069 504.5937 682.6337 641.6338 702.0305 697.3375 747.0826 652.2701 789.0535 610.2992 829.8824 567.1361 870.8392 524.101 886.2338 507.9573 884.7081 490.6205 867.1522 473.5896Z"  horiz-adv-x="1024" vert-adv-y="1024"  />

      
      <glyph glyph-name="truck2" unicode="&#xE027;" d="M659.84 244.4344H777.5544C793.8519 244.4344 806.9947 256.9594 806.9947 272.5256 806.9947 288.0694 793.8509 300.5944 777.5544 300.5944H689.2794V384.8681C689.2794 400.4119 676.1375 412.9369 659.84 412.9369S630.4231 400.4119 630.4231 384.8681V272.5256C630.4231 256.9828 643.5425 244.4344 659.84 244.4344ZM337.7375 164.5481C394.6972 164.5481 442.3081 126.5138 454.8116 75.7716H568.7084C581.2119 126.6516 628.8228 164.5481 685.8059 164.5481 752.2513 164.5481 806.3544 112.9144 806.3544 49.4859 806.3544-14.0578 752.2513-65.7141 685.8059-65.7141 630.2628-65.7141 583.9091-29.4853 569.9881 19.4513H453.6913C439.7713-29.4628 393.4175-65.7141 337.7375-65.7141 271.2913-65.7141 217.1431-14.0578 217.1431 49.3481S271.2688 164.5481 337.715 164.5481ZM685.8059-9.3937C719.8175-9.3937 747.4972 17.0297 747.4972 49.6463 747.4972 82.1034 719.8175 108.5269 685.7825 108.5269 651.7719 108.5269 624.0913 82.1034 624.0913 49.6463 624.0913 17.0297 651.7719-9.3937 685.8059-9.3937ZM337.7375-9.2334C371.7481-9.2334 399.4513 17.1891 399.4513 49.6463 399.4513 82.1034 371.7481 108.5269 337.7375 108.5269 303.725 108.5269 276.0228 82.1034 276.0228 49.6463 276.0228 17.19 303.7259-9.2334 337.7375-9.2334ZM188.8456 665.7141H615.8628C656.3656 665.7141 689.2803 634.3078 689.2803 595.6575V514.4231L868.2059 428.64C869.4856 428.0456 870.7428 427.2919 871.8622 426.5372 905.0741 404.1825 923.4284 369.4622 923.4284 328.7091V46.0341C923.4284 30.4913 910.2856 17.9203 894.0116 17.9203 877.7141 17.9203 864.5712 30.4922 864.5712 46.0341V328.6856C864.5712 350.5828 856.1825 367.7944 839.7256 379.5656L646.5603 471.9769C645.3031 472.5947 644.3431 473.805 643.2453 474.5597 641.4856 475.7719 639.7484 476.8228 638.3319 478.1719A28.275 28.275 0 0 0 635.1772 482.5594C634.2172 484.0687 633.1203 485.4169 632.48 487.2459 631.6803 489.1884 631.52 491.1544 631.2228 493.1203 631.0634 494.4919 630.4231 495.7031 630.4231 497.0512V595.6575C630.4231 603.1997 623.9319 609.5541 615.8628 609.5541H188.8456C172.7084 609.5541 159.4288 596.7084 159.4288 581.0053V47.8397C159.4288 32.2969 146.285 19.7484 129.9884 19.7484 113.7134 19.7484 100.5716 32.2734 100.5716 47.8397V581.0062C100.5716 627.6581 140.2747 665.715 188.8466 665.715Z"  horiz-adv-x="1024" vert-adv-y="1024"  />

      
      <glyph glyph-name="shuxing" unicode="&#xE028;" d="M872 114H764V222C764 240 749 255 731 255S698 240 698 222V114H590C572 114 557 99 557 81S572 48 590 48H698V-60C698-78 713-93 731-93S764-78 764-60V48H872C890 48 905 63 905 81S890 114 872 114ZM125 483H890V417H125ZM905 579C905 609 893 636 872 660 851 681 824 693 794 693H233C170 693 122 642 119 582V21C119-9 131-36 152-60 173-81 200-93 230-93H527C545-93 560-78 560-60S545-27 527-27H233C221-27 209-21 200-12 191-3 185 9 185 21V579C185 591 191 603 200 612 209 621 221 627 233 627H794C806 627 818 621 827 612 836 603 842 591 842 579V288C842 270 857 255 875 255S908 270 908 288V579Z"  horiz-adv-x="1024" vert-adv-y="1024"  />

      
      <glyph glyph-name="archive2" unicode="&#xE029;" d="M982.75 460.5C982.25 462.5 981.625 464.375 980.875 466.25L899.625 667.875C883.875 709.75 842.875 736.75 798.125 734.75H228.5C185.125 737.5 145 711.5 129.875 670.75L42.875 465.625C42.75 464 42.75 462.375 42.875 460.875 14.625 374 53.125 279.25 134.125 236.875 161.875 222.875 192.625 215.75 223.75 216.5 279.625 216.75 332.625 241.25 369 283.75 436.375 204.25 555.5 194.375 635.125 261.75 643 268.5 650.375 275.75 657.125 283.75 724.5 203.5 844.25 193 924.5 260.375 966.625 295.75 991.375 347.75 992.25 402.75 992 422.25 988.875 441.875 982.75 460.5ZM846.25 304.75L846.875 303.5C829.625 294.75 810.5 290.375 791.125 290.75 750.625 290.625 713 311.5 691.875 346 689.625 351 686.625 355.75 682.875 359.875 675 368.5 663.75 373.25 652.125 373.125 640.375 373.125 629.25 368.25 621.375 359.625 617.875 355.5 614.875 351 612.75 346.125 579.625 291.875 508.875 274.75 454.625 307.875 439 317.375 425.875 330.5 416.375 346.125 414.25 350.75 411.625 355 408.25 358.875 390.25 376.125 361.875 376.125 343.875 358.875 340 354.5 336.875 349.5 334.625 344 312.75 310.25 275 290 234.75 290.625 215.75 290 197 294 179.875 302.375 129 328.75 105.375 388.25 124.125 442.25V445.125L206.125 639C208 644 212.875 659.125 238.875 659.125H787.625C802.75 660.375 816.875 651.875 822.75 637.875L900.375 448V444.25C919.25 390.75 896.25 331.5 846.25 304.75ZM884.25 172.25C865.375 172.25 848.625 157 848.5 138.125V-42.875C848.25-53.5 839.625-62 829-62H183C172.375-62.25 163.625-53.75 163.5-43.25V134.25C163.5 153.375 146.75 168.75 127.75 168.75S91.875 153.25 91.875 134.25V-49.5C92.125-98.25 131.75-137.625 180.5-137.5H832C880.75-137.5 920.375-98.125 920.625-49.5V138C920.5 157 903.75 172.25 884.875 172.25H884.25Z"  horiz-adv-x="1024" vert-adv-y="1024"  />

      
      <glyph glyph-name="send_o" unicode="&#xE02A;" d="M1007.9154 805.5891C1019.9093 797.0326 1025.6137 783.3201 1023.3466 769.0225L877.0801-108.5761A36.6397 36.6397 0 0 0 841.0986-138.8533C836.5277-138.8533 831.9569-137.7197 827.3861-136.0011L526.2966-13.1738 356.0425-199.9926A34.7017 34.7017 0 0 0 329.2026-211.9865 33.3487 33.3487 0 0 0 316.0752-209.6828 37.042 37.042 0 0 0 292.636-175.3833V82.8867L22.9573 193.1716A36.2009 36.2009 0 0 0 18.3864 258.2967L969.1183 806.7958A35.5427 35.5427 0 0 0 1007.952 805.6623ZM812.5035-50.874L938.768 705.031 119.4565 232.5172 311.4312 154.2281 804.4954 519.3092 531.3794 63.9452Z"  horiz-adv-x="1024" vert-adv-y="1024"  />

      
      <glyph glyph-name="spinner" unicode="&#xE02B;" d="M300.5806 15.4377C300.5806-24.5714 267.9954-57.7051 227.4377-57.7051 187.4286-57.7051 154.2949-24.5714 154.2949 15.4377 154.2949 55.9954 187.4286 88.5806 227.4377 88.5806 267.9954 88.5806 300.5806 55.9954 300.5806 15.4377ZM585.1429-102.2857C585.1429-142.8434 552.5577-175.4286 512-175.4286S438.8571-142.8434 438.8571-102.2857 471.4423-29.1429 512-29.1429 585.1429-61.728 585.1429-102.2857ZM182.8571 300C182.8571 259.4423 150.272 226.8571 109.7143 226.8571S36.5714 259.4423 36.5714 300 69.1566 373.1429 109.7143 373.1429 182.8571 340.5577 182.8571 300ZM869.7051 15.4377C869.7051-24.5714 836.5714-57.7051 796.5623-57.7051 756.0046-57.7051 723.4194-24.5714 723.4194 15.4377 723.4194 55.9954 756.0046 88.5806 796.5623 88.5806 836.5714 88.5806 869.7051 55.9954 869.7051 15.4377ZM318.8663 584.5623C318.8663 534.2766 277.7234 493.1337 227.4377 493.1337S136.0091 534.2766 136.0091 584.5623 177.152 675.9909 227.4377 675.9909 318.8663 634.848 318.8663 584.5623ZM987.4286 300C987.4286 259.4423 954.8434 226.8571 914.2857 226.8571S841.1429 259.4423 841.1429 300 873.728 373.1429 914.2857 373.1429 987.4286 340.5577 987.4286 300ZM621.7143 702.2857A109.7509 109.7509 0 0 0 402.2857 702.2857 109.7509 109.7509 0 0 0 621.7143 702.2857ZM924.5623 584.5623C924.5623 513.7234 866.8526 456.5623 796.5623 456.5623A127.8171 127.8171 0 0 0 668.5623 584.5623C668.5623 654.8526 725.7234 712.5623 796.5623 712.5623 866.8526 712.5623 924.5623 654.8526 924.5623 584.5623Z"  horiz-adv-x="1024" vert-adv-y="1024"  />

      
      <glyph glyph-name="star" unicode="&#xE02C;" d="M987.4469 442.2994C987.4469 432.0229 980.0229 422.2949 972.5989 414.8709L765.1657 212.5943 814.3177-73.1017C814.9029-77.088 814.9029-80.5257 814.9029-84.5486 814.9029-99.3966 808.064-113.1109 791.4606-113.1109A46.4457 46.4457 0 0 0 768.6034-106.272L512.0183 28.5669 255.4331-106.272C248.0091-110.2583 240.5851-113.1109 232.576-113.1109 216.0091-113.1109 208.5851-99.3966 208.5851-84.5486 208.5851-80.5623 209.1703-77.1246 209.7189-73.1017L258.8709 212.5943 50.8526 414.8709C44.0137 422.2949 36.5531 432.0229 36.5531 442.2994 36.5531 459.4514 54.2537 466.2903 68.5531 468.5943L355.4194 510.3223 484.0046 770.3086C489.1611 781.1703 498.8526 793.7509 512.0183 793.7509S534.8754 781.1703 540.032 770.3086L668.6171 510.3223 955.4834 468.5943C969.1977 466.2903 987.4834 459.4514 987.4834 442.2994Z"  horiz-adv-x="1024" vert-adv-y="1024"  />

      
      <glyph glyph-name="tag" unicode="&#xE02D;" d="M329.1429 556C329.1429 596.5577 296.5577 629.1429 256 629.1429S182.8571 596.5577 182.8571 556 215.4423 482.8571 256 482.8571 329.1429 515.4423 329.1429 556ZM938.8617 226.8571C938.8617 207.4377 930.8526 188.5669 917.7234 175.4377L637.1474-105.7234C623.4331-118.8526 604.5623-126.8617 585.1429-126.8617S546.8526-118.8526 533.7234-105.7234L125.1474 303.4377C96 332 73.1429 387.4423 73.1429 428V665.7143C73.1429 705.7234 106.2766 738.8571 146.2857 738.8571H384C424.5577 738.8571 480 716 509.1474 686.8526L917.7234 278.8617C930.8526 265.1474 938.8617 246.2766 938.8617 226.8571Z"  horiz-adv-x="1024" vert-adv-y="1024"  />

      
      <glyph glyph-name="times_circle" unicode="&#xE02E;" d="M512-148C759.424-148 960 52.576 960 300 960 547.4236 759.424 748 512 748 264.5764 748 64 547.4236 64 300 64 52.576 264.5764-148 512-148ZM335.5473 422.2315L389.7886 476.6016 512.1536 354.528 634.1717 476.486 688.4651 422.1662 566.4597 300.2219 688.5205 177.8709 634.1504 123.6288 512.1621 245.9072 389.8359 123.4453 335.4999 177.7216 457.856 300.2133 335.5473 422.2315Z"  horiz-adv-x="1024" vert-adv-y="1024"  />

      
      <glyph glyph-name="zoom_out3" unicode="&#xE02F;" d="M916.0388 767.2137A114.0425 114.0425 0 0 1 890.7275 769.8738C868.6088 769.8738 849.6825 764.1288 835.74 753.765L758.3112 701.1288 683.005 751.5412C650.995 773.4387 602.43 773.8512 569.2475 751.3287L497.8075 701.4837 424.7125 751.54C392.94 773.3088 344.365 773.6838 311.745 751.62L244.32 705.8925 194.9 747.35A36.6237 36.6237 0 0 1 192.7337 749.1725C170.9175 766.2375 137.91 773.1075 109.1875 767.4138 108.3862 767.225 104.6225 766.26 103.8212 766.0475 103.2225 765.8725 101.2912 765.27 100.7138 765.0712 44.49 745.0775 40.125 702 40.125 689.2675V-87.9562C40.125-126.8337 68.0588-158.9588 106.9975-166.0225A116.6813 116.6813 0 0 1 130.2975-168.5275C130.7337-168.4575 132.9575-168.5275 133.4275-168.5275A90.7925 90.7925 0 0 1 186.65-151.3825L252.6638-104.0763 331.9275-154.5113C347.3562-165.4688 367.0775-171.5037 387.4825-171.5037L387.7287-171.4675C407.015-171.3513 425.8287-165.925 443.7175-154.7463L512.3087-107.1363 579.2138-154.2063A35.9875 35.9875 0 0 1 584.145-157.2188L586.0037-158.1325C615.3062-173.4313 655.4325-173.4313 684.85-158.1325A41.5 41.5 0 0 1 688.1813-156.1713L767.0912-104.395 833.6087-152.37A101.385 101.385 0 0 1 890.3025-169.385C897.435-169.385 912.2963-169.385 927.0287-161.9337 976.1925-140.9225 981.5125-103.1912 981.5125-87.8963V689.2913C981.5125 726.4275 953.7512 759.2337 916.0388 767.2137ZM901.7412-99.5013C900.1688-99.8425 898.5537-99.9563 896.95-99.8238A26.375 26.375 0 0 0 883.8512-96.6138L795.3462-32.7375A38.8125 38.8125 0 0 1 751.3112-31.7525L650.7512-97.8337A34.6875 34.6875 0 0 0 622.6662-96.8587L534.84-35.1325A38.8075 38.8075 0 0 1 490.3787-35.0013L399.9525-97.8162A28.425 28.425 0 0 0 385.2625-102.04 22.7313 22.7313 0 0 0 372.0925-98.0163L267.735-31.48A38.8575 38.8575 0 0 1 246.8787-25.42H246.8675A38.6825 38.6825 0 0 1 224.2512-32.7L135.7812-96.15C133.1588-98.0163 130.1412-99.035 125.3537-99.035A88.8363 88.8363 0 0 0 114.8288-97.835C114.615-97.8162 109.5975-96.8775 109.5975-94.6287L109.1225 694.2425C109.1325 694.28 111.2875 696.9975 117.275 699.3912 126.3987 701.1987 136.2512 698.23 138.7412 696.2913L212.2112 634.625C225.5062 623.4625 244.5962 622.4837 258.9625 632.23L351.8138 695.2025C359.9438 700.685 374.5 698.6012 379.35 695.3088L475.8563 629.2488A38.76 38.76 0 0 1 519.995 629.4537L614.2587 695.215C619.7562 698.9725 636.5138 699.1763 642.5037 695.0838L741.21 629.0225A38.8175 38.8175 0 0 1 784.6112 629.1775L886.3688 698.3888C888.3687 699.8375 898.47 701.2962 906.4975 699.4887A9.4062 9.4062 0 0 0 912.0275 696.0888L912.515-93.105C912.43-93.1062 910.6825-95.5837 901.7412-99.5013ZM319.1075 316.6388H287.305C272.655 316.6388 259.4462 322.5537 249.82 332.1588 240.195 341.7638 234.3 354.9938 234.3 369.6425 234.3 384.2937 240.215 397.5012 249.82 407.1275 259.425 416.7525 272.655 422.6475 287.305 422.6475H319.1075V316.6388ZM361.51 274.2337H393.3125C407.9625 274.2337 421.1712 268.32 430.7963 258.7137 440.4213 249.11 446.3163 235.88 446.3162 221.2287 446.3162 206.58 440.4013 193.3712 430.7963 183.745 421.1925 174.1213 407.9625 168.2263 393.3125 168.2262H361.51V274.2337ZM446.3162 465.05H361.51V528.655C361.51 540.3588 352.0112 549.8563 340.3088 549.8562 328.605 549.8562 319.1075 540.3575 319.1075 528.655V465.05H287.305C260.9725 465.05 237.0775 454.3437 219.8413 437.1063 202.6037 419.87 191.8975 395.9763 191.8975 369.6425 191.8975 343.3112 202.6037 319.415 219.8413 302.1788 237.0788 284.94 260.9725 274.2337 287.305 274.2337H319.1075V168.225H213.0988C201.3962 168.225 191.8975 158.7263 191.8975 147.0237 191.8975 135.32 201.3962 125.8212 213.0988 125.8212H319.1075V62.215C319.1075 50.5138 328.605 41.015 340.3088 41.015 352.0113 41.015 361.51 50.5137 361.51 62.215V125.8212H393.3125C419.645 125.8212 443.5388 136.5275 460.7775 153.765 478.015 171.0012 488.7213 194.8962 488.7212 221.2275 488.7212 247.5612 478.0138 271.4562 460.7775 288.6938 443.5388 305.9313 419.645 316.6388 393.3125 316.6388H361.51V422.6463H446.3162C458.0212 422.6463 467.52 432.145 467.52 443.8488 467.52 455.5513 458.0213 465.05 446.3162 465.05ZM788.8675 403.5625H571.335C557.19 403.5625 545.71 392.0825 545.71 377.9375S557.19 352.3125 571.335 352.3125H788.8675C803.0113 352.3125 814.4925 363.7925 814.4925 377.9375S803.0125 403.5625 788.8675 403.5625ZM788.8675 224.81H571.335C557.19 224.81 545.71 213.33 545.71 199.185S557.19 173.56 571.335 173.56H788.8675C803.0113 173.56 814.4925 185.04 814.4925 199.185S803.0125 224.81 788.8675 224.81Z"  horiz-adv-x="1024" vert-adv-y="1024"  />

      
      <glyph glyph-name="calendar" unicode="&#xE030;" d="M109.7143-138.8571H274.2857V25.7143H109.7143V-138.8571ZM310.8571-138.8571H493.7143V25.7143H310.8571V-138.8571ZM109.7143 62.2857H274.2857V245.1429H109.7143V62.2857ZM310.8571 62.2857H493.7143V245.1429H310.8571V62.2857ZM109.7143 281.7143H274.2857V446.2857H109.7143V281.7143ZM530.2857-138.8571H713.1429V25.7143H530.2857V-138.8571ZM310.8571 281.7143H493.7143V446.2857H310.8571V281.7143ZM749.7143-138.8571H914.2857V25.7143H749.7143V-138.8571ZM530.2857 62.2857H713.1429V245.1429H530.2857V62.2857ZM329.1429 556V720.5714C329.1429 730.2994 320.5851 738.8571 310.8571 738.8571H274.2857C264.5577 738.8571 256 730.2994 256 720.5714V556C256 546.272 264.5577 537.7143 274.2857 537.7143H310.8571C320.5851 537.7143 329.1429 546.272 329.1429 556ZM749.7143 62.2857H914.2857V245.1429H749.7143V62.2857ZM530.2857 281.7143H713.1429V446.2857H530.2857V281.7143ZM749.7143 281.7143H914.2857V446.2857H749.7143V281.7143ZM768 556V720.5714C768 730.2994 759.4423 738.8571 749.7143 738.8571H713.1429C703.4149 738.8571 694.8571 730.2994 694.8571 720.5714V556C694.8571 546.272 703.4149 537.7143 713.1429 537.7143H749.7143C759.4423 537.7143 768 546.272 768 556ZM987.4286 592.5714V-138.8571C987.4286-178.8663 954.2949-212 914.2857-212H109.7143C69.7051-212 36.5714-178.8663 36.5714-138.8571V592.5714C36.5714 632.5806 69.7051 665.7143 109.7143 665.7143H182.8571V720.5714C182.8571 770.8571 224 812 274.2857 812H310.8571C361.1429 812 402.2857 770.8571 402.2857 720.5714V665.7143H621.7143V720.5714C621.7143 770.8571 662.8571 812 713.1429 812H749.7143C800 812 841.1429 770.8571 841.1429 720.5714V665.7143H914.2857C954.2949 665.7143 987.4286 632.5806 987.4286 592.5714Z"  horiz-adv-x="1024" vert-adv-y="1024"  />

      
      <glyph glyph-name="barcode" unicode="&#xE031;" d="M35.9863-65.7143H0V738.8571H35.9863V-65.7143ZM72.0091-65.1291H53.7234V738.8571H72.0091V-65.1291ZM125.696-65.1291H107.9954V738.8571H125.696V-65.1291ZM215.4423-65.1291H197.7417V738.8571H215.4423V-65.1291ZM305.152-65.1291H269.7143V738.8571H305.152V-65.1291ZM377.1611-65.1291H359.4606V738.8571H377.1611V-65.1291ZM413.1474-65.1291H395.4469V738.8571H413.1474V-65.1291ZM449.1337-65.1291H431.4331V738.8571H449.1337V-65.1291ZM538.8434-65.1291H502.8571V738.8571H538.8434V-65.1291ZM628.5531-65.1291H592.5669V738.8571H628.5531V-65.1291ZM700.5623-65.1291H664.576V738.8571H700.5623V-65.1291ZM772.5714-65.1291H736.5851V738.8571H772.5714V-65.1291ZM826.2949-65.1291H790.3086V738.8571H826.2949V-65.1291ZM934.2903-65.1291H880.5669V738.8571H934.2903V-65.1291ZM970.2766-65.1291H951.9909V738.8571H970.2766V-65.1291ZM1024-65.7143H988.0137V738.8571H1024V-65.7143Z"  horiz-adv-x="1024" vert-adv-y="1024"  />

      
      <glyph glyph-name="caret_down" unicode="&#xE032;" d="M546.1291 132.1792C529.0624 109.4208 494.9291 109.4208 477.8624 132.1792L307.194 359.7333C286.0988 387.8609 306.1683 428 341.3274 428L682.6624 428C717.8197 428 737.8901 387.8609 716.7957 359.7333L546.1291 132.1792Z"  horiz-adv-x="1024" vert-adv-y="1024"  />

      
      <glyph glyph-name="clipboard3" unicode="&#xE033;" d="M928 684H640A128 128 0 0 1 384 684H96A32 32 0 0 1 64 652V-180A32 32 0 0 1 96-212H928A32 32 0 0 1 960-180V652A32 32 0 0 1 928 684ZM512 748A64 64 0 1 0 512.032 620.032 64 64 0 0 0 512 748ZM896-148H128V620H256V524A32 32 0 0 1 288 492H736A32 32 0 0 1 768 524V620H896V-148ZM448-46.496L242.752 190.752 301.248 249.248 448 134.496 722.752 377.248 781.28 318.752Z"  horiz-adv-x="1024" vert-adv-y="1024"  />

      
      <glyph glyph-name="caret_up" unicode="&#xE034;" d="M479.8848 476.6379C496.8832 496.0653 527.104 496.0653 544.1024 476.6379L748.7403 242.7627C772.8811 215.1787 753.2885 172 716.6336 172H307.354C270.6965 172 251.1049 215.1787 275.2439 242.7627L479.8848 476.6379Z"  horiz-adv-x="1024" vert-adv-y="1024"  />

      
      <glyph glyph-name="check_circle" unicode="&#xE035;" d="M512-148C759.424-148 960 52.576 960 300 960 547.4236 759.424 748 512 748 264.5764 748 64 547.4236 64 300 64 52.576 264.5764-148 512-148ZM475.0251 128.7915C460.0277 113.8027 435.7163 113.8069 420.7245 128.8L268.7292 280.8043 323.0366 335.1104 447.8848 210.2507 692.9365 455.1693 747.2256 400.8491 475.0251 128.7915Z"  horiz-adv-x="1024" vert-adv-y="1024"  />

      
      <glyph glyph-name="font" unicode="&#xE036;" d="M451.0354 492.5851L353.9017 235.4514C410.4777 234.8663 467.0537 233.1474 523.6297 233.1474 534.4914 233.1474 545.3531 233.7326 556.2149 234.2811 526.5189 321.1383 491.6297 409.7143 451.072 492.5851ZM36.7543-138.8571L37.888-93.728C91.6114-77.1611 149.9063-88.5714 173.8971-26.8754L309.3211 325.1246 469.3211 738.8206H542.464C544.768 734.8343 547.0354 730.8114 548.7543 726.8251L665.8926 452.5394C708.7543 351.3829 748.1783 249.0926 791.5886 148.5211 817.2983 89.0926 837.3029 27.9451 865.8651-30.3497 869.8514-39.4926 877.8606-56.6446 885.8697-62.9349 904.7406-77.7829 957.2937-81.2206 984.1737-91.4971 985.8926-102.3589 987.6114-113.2206 987.6114-124.0823 987.6114-129.2389 987.0263-133.8103 987.0263-138.9303 914.4686-138.9303 841.8743-129.7874 769.3166-129.7874 694.4549-129.7874 619.5931-136.0777 544.7314-138.3451 544.7314-123.4971 545.3166-108.6491 547.0354-93.7646L621.8971-77.7463C637.3303-74.3086 667.6114-70.3223 667.6114-49.184 667.6114-28.6309 593.8834 141.0971 584.7406 164.5394L327.6069 165.6731C312.7589 132.5394 255.0491-17.184 255.0491-38.9074 255.0491-82.9029 339.0537-84.6217 371.6023-89.1931 372.1874-100.0549 372.1874-110.9166 372.1874-122.3269 372.1874-127.4834 371.6023-132.6034 371.0537-137.76 304.7497-137.76 237.8971-126.3131 171.6297-126.3131 163.6206-126.3131 152.2103-129.7509 144.2011-130.8846 108.2149-137.1749 72.7771-138.8937 36.7543-138.8937Z"  horiz-adv-x="1024" vert-adv-y="1024"  />

      
      <glyph glyph-name="image" unicode="&#xE037;" d="M365.7143 482.8571A109.7509 109.7509 0 0 0 146.2857 482.8571 109.7509 109.7509 0 0 0 365.7143 482.8571ZM950.8571 263.4286V7.4286H146.2857V117.1429L329.1429 300 420.5714 208.5714 713.1429 501.1429ZM1005.7143 665.7143H91.4286C81.7006 665.7143 73.1429 657.1566 73.1429 647.4286V-47.4286C73.1429-57.1566 81.7006-65.7143 91.4286-65.7143H1005.7143C1015.4423-65.7143 1024-57.1566 1024-47.4286V647.4286C1024 657.1566 1015.4423 665.7143 1005.7143 665.7143ZM1097.1429 647.4286V-47.4286C1097.1429-97.7143 1056-138.8571 1005.7143-138.8571H91.4286A91.6846 91.6846 0 0 0 0-47.4286V647.4286C0 697.7143 41.1429 738.8571 91.4286 738.8571H1005.7143C1056 738.8571 1097.1429 697.7143 1097.1429 647.4286Z"  horiz-adv-x="1097" vert-adv-y="1024"  />

      
      <glyph glyph-name="reply" unicode="&#xE038;" d="M1024 172C1024 91.9817 983.9909-12.576 951.4423-85.7189 945.152-98.848 938.8617-117.1337 930.304-129.1657 926.3177-134.8709 922.2949-138.8937 914.2857-138.8937 902.8389-138.8937 896-129.7509 896-118.8891 896-109.7463 898.304-99.4697 898.8526-90.3269 900.5714-66.8846 901.7051-43.4789 901.7051-20.0366 901.7051 252.5303 739.9863 299.9634 493.7143 299.9634H365.7143V153.6777C365.7143 133.6731 349.1474 117.1063 329.1429 117.1063A36.2057 36.2057 0 0 0 303.4331 127.968L10.8617 420.5394C4.0229 427.3783 0 436.5577 0 446.2491S3.9863 465.12 10.8617 471.9589L303.4331 764.5303A36.4251 36.4251 0 0 0 329.1429 775.392C349.1474 775.392 365.7143 758.8251 365.7143 738.8206V592.5349H493.7143C681.1429 592.5349 914.2857 559.4011 993.7189 362.2446 1017.7097 301.6823 1024 235.9634 1024 171.9634Z"  horiz-adv-x="1024" vert-adv-y="1024"  />

      
      <glyph glyph-name="font_size" unicode="&#xE039;" d="M80 380H419.2C454.4 380 480 351.2 480 319.2 480 284 451.2 258.4 419.2 258.4H304V-58.4C304-93.6 275.2-119.2 243.2-119.2 208-119.2 182.4-90.4 182.4-58.4V258.4H80C44.8 258.4 19.2 287.2 19.2 319.2 19.2 354.4 44.8 380 80 380ZM944 600.8H672V-55.2C672-90.4 643.2-122.4 604.8-122.4 569.6-122.4 537.6-93.6 537.6-55.2V600.8H265.6C230.4 600.8 204.8 629.6 204.8 661.6 204.8 696.8 233.6 722.4 265.6 722.4H944C979.2 722.4 1004.8 693.6 1004.8 661.6 1004.8 626.4 979.2 600.8 944 600.8Z"  horiz-adv-x="1024" vert-adv-y="1024"  />

      
      <glyph glyph-name="info_circle" unicode="&#xE03A;" d="M512 748C759.4325 748 960 547.4338 960 300 960 52.5675 759.4325-148 512-148 264.5662-148 64 52.5675 64 300 64 547.4338 264.5662 748 512 748ZM574.5493 415.2738H569.7237C527.1637 398.7324 463.2363 405.7971 420.5047 389.2553V376.8512C482.1888 376.8512 465.3056 338.9419 453.5893 293.6256 434.1163 236.4181 418.2647 178.1781 406.3753 118.9056 399.1386 89.0944 417.4029 59.1125 447.04 51.8763 452.3819 50.6688 457.7237 50.1525 463.2363 50.3275 505.7963 50.3275 541.4656 92.8875 560.4181 116.6656 565.0688 121.3163 600.7381 159.2256 579.5456 164.0512 560.4181 168.5312 541.6363 92.8875 506.1419 107.1893 504.5333 107.1893 502.9845 107.9915 501.4912 109.6 519.9275 212.8107 544.3925 314.8181 574.72 415.1014L574.5493 415.2738ZM555.4219 571.7291C526.6475 571.7291 503.2107 548.2953 503.2107 519.52 503.2107 490.7447 526.6475 467.3109 555.4219 467.3109 584.1963 467.3109 607.6288 490.7447 607.6288 519.52 607.6288 548.2953 584.1963 571.7291 555.4219 571.7291Z"  horiz-adv-x="1024" vert-adv-y="1024"  />

      
      <glyph glyph-name="refresh" unicode="&#xE03B;" d="M849.7579 530.0015C861.4997 528.3802 871.8293 521.4332 877.7557 511.168 994.3808 309.1691 925.1712 50.8779 723.1744-65.7472 629.7557-119.6821 524.2325-133.8475 426.3403-113.5381L406.8817-109.0411 369.6734-99.4581 388.7983-25.0816 426.0066-34.6645 441.9243-38.3723C522.0779-55.008 608.3072-43.3813 684.7573 0.7531 835.2171 87.6181 895.5947 270.5429 833.216 427.3348L703.3003 300.5419 649.6725 355.5008 817.6725 519.4598 821.0048 522.3347C829.12 528.6144 839.4752 531.4197 849.7579 530.0015ZM300.8401 665.7515C394.2579 719.6868 499.7845 733.8526 597.6747 713.5433L617.1307 709.0432 654.3403 699.4598 635.2171 625.085 598.0075 634.6684 582.0885 638.3765C501.9392 655.0127 415.7052 643.3835 339.2567 599.2516 188.8141 512.3925 128.4092 329.4912 190.7567 172.7083L320.7151 299.4581 374.3403 244.5035 206.3403 80.544C197.8547 72.2624 186.0011 68.384 174.2566 70.0011 162.5156 71.6224 152.183 78.5685 146.2566 88.8341 29.6332 290.8352 98.8407 549.1264 300.8401 665.7515Z"  horiz-adv-x="1024" vert-adv-y="1024"  />

      
      <glyph glyph-name="save" unicode="&#xE03C;" d="M292.5714-65.7143H731.4286V153.7143H292.5714V-65.7143ZM804.5714-65.7143H877.7143V446.2857C877.7143 457.1474 867.9863 480.5897 860.5623 488.0137L699.9771 648.5989C691.968 656.608 669.696 665.7509 658.2491 665.7509V428.0366A54.8571 54.8571 0 0 0 603.392 373.1794H274.2491A54.8571 54.8571 0 0 0 219.392 428.0366V665.7509H146.2491V-65.6777H219.392V172.0366A54.8571 54.8571 0 0 0 274.2491 226.8937H749.6777A54.8571 54.8571 0 0 0 804.5349 172.0366V-65.6777ZM585.1429 464.5714V647.4286C585.1429 657.1566 576.5851 665.7143 566.8571 665.7143H457.1429C447.4149 665.7143 438.8571 657.1566 438.8571 647.4286V464.5714C438.8571 454.8434 447.4149 446.2857 457.1429 446.2857H566.8571C576.5851 446.2857 585.1429 454.8434 585.1429 464.5714ZM950.8571 446.2857V-84A54.8571 54.8571 0 0 0 896-138.8571H128A54.8571 54.8571 0 0 0 73.1429-84V684A54.8571 54.8571 0 0 0 128 738.8571H658.2857C688.5669 738.8571 730.2949 721.7051 751.9817 700.0183L911.9817 540.0183C933.7051 518.2949 950.8206 476.6034 950.8206 446.3223Z"  horiz-adv-x="1024" vert-adv-y="1024"  />

      
      <glyph glyph-name="cog" unicode="&#xE03D;" d="M658.2864 300C658.2864 380.5669 592.5676 446.2857 512.0007 446.2857S365.715 380.5669 365.715 300 431.4339 153.7143 512.0007 153.7143 658.2864 219.4331 658.2864 300ZM950.8579 362.2811V235.4149C950.8579 226.8571 944.019 216.544 934.8396 214.8617L829.1116 198.8434A324.0229 324.0229 0 0 0 806.8396 146.8389C826.259 118.8251 846.8487 93.7006 867.987 67.9909 871.4247 64.0046 873.6922 58.848 873.6922 53.6914S871.9733 44.5486 868.5356 40.5623C854.8213 22.2766 777.6922-61.728 758.2362-61.728A29.0743 29.0743 0 0 0 743.3882-56.5714L664.5402 5.1246A345.5634 345.5634 0 0 0 612.5356-16.5989C608.5493-51.4514 605.1116-88.608 595.9687-122.8754A20.9554 20.9554 0 0 0 575.4156-138.8937H448.5493C438.2727-138.8937 429.1299-131.4697 427.9962-121.7417L411.9779-16.5989A336.2377 336.2377 0 0 0 360.5584 4.5394L279.9916-56.608C276.0053-60.0457 270.8487-61.7646 265.6922-61.7646S255.4156-59.4606 251.3927-55.4743C221.1116-28.0457 181.1024 7.392 157.1116 40.5257A22.1989 22.1989 0 0 0 157.6967 66.784C177.1162 93.0789 198.2544 118.2034 217.7104 145.0834A304.4206 304.4206 0 0 0 194.2682 201.6594L89.7104 217.0926A20.8457 20.8457 0 0 0 73.1436 237.6457V364.512C73.1436 373.0697 79.9824 383.3829 88.5767 385.0651L194.8533 401.0834C200.5584 419.3691 207.9824 436.5211 217.1253 453.6366A1376.5486 1376.5486 0 0 1 155.9779 532.4846C152.5402 536.4709 150.2727 541.0423 150.2727 546.1989S152.5767 555.3417 155.4293 559.328C169.1436 578.1989 246.2727 661.6183 265.7287 661.6183 270.8853 661.6183 276.0053 659.3143 280.5767 655.9131L359.4247 594.7657A345.5634 345.5634 0 0 0 411.4293 616.4891C415.4156 651.3417 418.8533 688.4983 427.9962 722.7657A20.9554 20.9554 0 0 0 448.5493 738.784H575.4156C585.6922 738.784 594.835 731.36 595.9687 721.632L611.987 616.4891C629.6876 610.784 646.8396 603.9086 663.4064 595.3509L744.5584 656.4983C747.9962 659.936 753.1162 661.6549 758.2727 661.6549S768.5493 659.3509 772.5722 655.9497C802.8533 627.936 842.8624 592.5349 866.8533 558.816A19.5291 19.5291 0 0 0 870.8396 546.2354C870.8396 541.0789 869.1207 537.0926 866.2682 533.1063 846.8487 506.8114 825.7104 481.6869 806.2544 454.8069 815.9824 436.5211 823.955 417.6503 829.6967 398.816L934.2544 382.7977A20.8457 20.8457 0 0 0 950.8213 362.2446Z"  horiz-adv-x="1024" vert-adv-y="1024"  />

      
      </font>
</defs>
</svg>
